smy
smy
总版主
总版主
  • 注册日期2015-07-27
  • 发帖数1423
  • 影币65888枚
  • 魔力值2269点
  • 蓝光币1克拉
  • 社区居民
  • 忠实会员
  • 喜欢达人
  • 原创写手
阅读:863回复:3

[欧美]屏住呼吸/禁室杀戮(港)/别呼吸(台)/暂时停止呼吸Dont.Breathe.2016.WEBRip.x264.AAC2.0-STUTTERSHIT.简繁字幕 2.90G

楼主#
更多 发布于:2016-11-02 21:57

 
◎片  名 屏住呼吸 Don’t Breathe
◎又  名 禁室杀戮(港)/别呼吸(台)/暂时停止呼吸/A Man in the Dark
◎年  代 2016
◎国  家 美国
◎类  型 剧情/悬疑/恐怖
◎语  言 英语
◎上映日期 2016-03-12(西南偏南电影节)/2016-08-26(美国)
◎IMDb链接 http://www.imdb.com/title/tt4160708/
◎IMDb评分 7.5/10 from 34,998 users
◎豆瓣链接 https://movie.douban.com/subject/26704620/
◎豆瓣评分 7.7/10 from 2,622 users
◎片  长 88分钟
◎导  演 费德·阿尔瓦雷兹 Fede Alvarez
◎主  演 史蒂芬·朗 Stephen Lang
简·拉维 Jane Levy
迪兰·明奈特 Dylan Minnette
丹尼尔·祖瓦图 Daniel Zovatto
艾玛·博科维奇 Emma Bercovici
弗兰西斯卡·托朗西斯科 Franciska Töröcsik
克里斯蒂安·泽吉亚 Christian Zagia
卡提亚·波克 Katia Bokor
瑟吉·诺普科 Sergej Onopko
奥利维亚·吉尔斯 Olivia Gillies
丹娜·克拉克 Dayna Clark
 
◎简  介
 
一伙小年轻闯入一个富有的盲人家中,自以为可以在盗窃后后全身而退。不过他们错了。

 Video
 ID                                       : 1
 Format                                   : AVC
 Format/Info                              : Advanced Video Codec
 Format profile                           : High@L4.1
 Format settings, CABAC                   : Yes
 Format settings, ReFrames                : 4 frames
 Codec ID                                 : avc1
 Codec ID/Info                            : Advanced Video Coding
 Duration                                 : 1h 28mn
 Bit rate                                 : 4 500 Kbps
 Width                                    : 1 920 pixels
 Height                                   : 1 080 pixels
 Display aspect ratio                     : 16:9
 Frame rate mode                          : Constant
 Frame rate                               : 25.000 fps
 Color space                              : YUV
 Chroma subsampling                       : 4:2:0
 Bit depth                                : 8 bits
 Scan type                                : Progressive
 Bits/(Pixel*Frame)                       : 0.087
 Stream size                              : 2.76 GiB (95%)
 Title                                    : Dont.Breathe.2016.1080p.WEBRip.x264.AAC2.0-STUTTERSHIT
 Writing library                          : x264 core 148 r2694 3b70645
 Encoding settings                        : cabac=1 / ref=4 /
deblock=1:0:0 / analyse=0x3:0x113 / me=umh / subme=8 / psy=1 /
psy_rd=1.00:0.00 / mixed_ref=1 / me_range=16 / chroma_me=1 / trellis=1 /
 8x8dct=1 / cqm=0 / deadzone=21,11 / fast_pskip=1 / chroma_qp_offset=-2 /
 threads=40 / lookahead_threads=6 / sliced_threads=0 / nr=0 / decimate=1
 / interlaced=0 / bluray_compat=0 / constrained_intra=0 / bframes=3 /
b_pyramid=2 / b_adapt=2 / b_bias=0 / direct=3 / weightb=1 / open_gop=0 /
 weightp=2 / keyint=250 / keyint_min=25 / scenecut=40 / intra_refresh=0 /
 rc_lookahead=50 / rc=abr / mbtree=1 / bitrate=4500 / ratetol=1.0 /
qcomp=0.60 / qpmin=0 / qpmax=69 / qpstep=4 / ip_ratio=1.40 / aq=1:1.00
 
 Audio
 ID                                       : 2
 Format                                   : AAC
 Format/Info                              : Advanced Audio Codec
 Format profile                           : LC
 Codec ID                                 : 40
 Duration                                 : 1h 28mn
 Bit rate mode                            : Constant
 Bit rate                                 : 224 Kbps
 Channel(s)                               : 2 channels
 Channel positions                        : Front: L R
 Sampling rate                            : 48.0 KHz
 Frame rate                               : 46.875 fps (1024 spf)
 Compression mode                         : Lossy
 Stream size                              : 142 MiB (5%)
 Title                                    : Dont.Breathe.2016.1080p.WEBRip.x264.AAC2.0-STUTTERSHIT
 Default                                  : Yes
 Alternate group                          : 1
  


 
 
 
 
 
 
附件名称/大小 下载次数 最后更新
Dont.Breathe.2016.1080p.WEBRip.x264.AAC2.0-STUTTERSHIT.torrent (59KB)  49 2016-11-02 21:56
【字幕】Dont.Breathe.2016.1080p.WEBRip.x264.AAC2.0-STUTTERSHIT.zip (40KB)  33 2016-11-02 21:57

最新喜欢:

jeepmotorjeepmo...
lly1971
精灵王
精灵王
  • 注册日期2015-08-06
  • 发帖数3265
  • 影币3521枚
  • 魔力值1380点
  • 蓝光币8克拉
  • 社区居民
  • 最爱沙发
  • 忠实会员
沙发#
发布于:2016-11-03 11:42
感谢楼主分享
午夜晴空
骑士
骑士
  • 注册日期2016-01-26
  • 发帖数159
  • 影币102枚
  • 魔力值162点
  • 蓝光币0克拉
  • 社区居民
板凳#
发布于:2016-11-04 18:18
支持楼主分享!!
jasper69
侠客
侠客
  • 注册日期2017-01-01
  • 发帖数61
  • 影币0枚
  • 魔力值39点
  • 蓝光币0克拉
地板#
发布于:2017-02-01 13:10
谢谢分享
游客
返回顶部