smy
smy
总版主
总版主
  • 注册日期2015-07-27
  • 发帖数1423
  • 影币65888枚
  • 魔力值2269点
  • 蓝光币1克拉
  • 社区居民
  • 忠实会员
  • 喜欢达人
  • 原创写手
阅读:793回复:7

[欧美]海底总动员2:多莉去哪儿/海底总动员2:寻找多莉/寻找多莉/海底奇兵2(港)Finding.Dory.2016.1080p.BluRay.H264.AAC-RARBG 中英字幕 1.88G

楼主#
更多 发布于:2016-11-02 22:01


◎译  名 海底总动员2:多莉去哪儿/海底总动员2:寻找多莉/寻找多莉/海底奇兵2(港)
 
 ◎片  名 Finding Dory
 
 ◎年  代 2016
 
 ◎国  家 美国
 
 ◎类  别 喜剧/动画/冒险/家庭
 
 ◎语  言 英语
 
 ◎上映日期 2016-06-17(中国大陆/美国)
 
 ◎IMDb评分  7.7/10 from 74,610 users
 
 ◎IMDb链接  http://www.imdb.com/title/tt2277860/
 
 ◎豆瓣评分 7.4/10 from 32,706 users
 
 ◎豆瓣链接 https://movie.douban.com/subject/11524967/
 
 
 ◎片  长 97分钟
 
 ◎导  演 安德鲁·斯坦顿 Andrew Stanton / 安格斯·麦克莱恩 Angus MacLane
 
 ◎主  演 艾伦·德杰尼勒斯 Ellen DeGeneres
 
 艾伯特·布鲁克斯 Albert Brooks
 
 艾德·奥尼尔 Ed O'Neill
 
 凯特琳·奥尔森 Kaitlin Olson
 
 海登·罗兰斯 Hayden Rolence
 
 泰·布利尔 Ty Burrell
 
 黛安·基顿 Diane Keaton
 
 尤金·列维 Eugene Levy
 
 斯隆·穆雷 Sloane Murray
 
 伊德里斯·艾尔巴 Idris Elba
 
 多米尼克·威斯特 Dominic West
 
 鲍勃·彼德森 Bob Peterson
 
 凯特·麦克金农 Kate McKinnon
 
 比尔·哈德尔 Bill Hader
 
 西格妮·韦弗 Sigourney Weaver
 
◎简  介
 
 
 大家最喜爱的、健忘的多莉(艾伦·德杰尼勒斯 Ellen DeGeneres 配音)回来了!这次她将与好朋友尼莫(海登·罗兰斯 Hayden
Rolence 配音)与马林(艾伯特·布鲁克斯 Albert Brooks
配音)一起,寻找她的神秘过去和她遗失的家庭。她能记起来什么?她的父母是谁?还有,她是从哪儿学会了说鲸语?多莉与马林、尼莫一起开启了这场改变“鱼”生的大冒险,穿越大洋至加州著名的海洋生物研究所。
 在这里,多莉获得了三位有趣居民的鼎力支持:一只脾气暴躁、经常让研究所雇员找得团团转的章鱼汉克(艾德·奥尼尔 Ed O'Neill
配音);一头坚信自己的生物声呐技能出问题了的白鲸贝利(泰·布利尔 Ty Burrell 配音);以及一头严重近视眼的鲸鲨运儿(凯特琳·奥尔森
Kaitlin Olson 配音)。当多莉和朋友们在研究所错综复杂的内部水道中辗转前行时,她也逐渐对友谊、亲情和家庭的奥义有了更深刻的认识……

 Video
 ID                                       : 1
 Format                                   : AVC
 Format/Info                              : Advanced Video Codec
 Format profile                           : High@L4.1
 Format settings, CABAC                   : Yes
 Format settings, ReFrames                : 4 frames
 Codec ID                                 : avc1
 Codec ID/Info                            : Advanced Video Coding
 Duration                                 : 1h 37mn
 Bit rate                                 : 2 500 Kbps
 Width                                    : 1 920 pixels
 Height                                   : 1 080 pixels
 Display aspect ratio                     : 16:9
 Frame rate mode                          : Constant
 Frame rate                               : 23.976 (23976/1000) fps
 Color space                              : YUV
 Chroma subsampling                       : 4:2:0
 Bit depth                                : 8 bits
 Scan type                                : Progressive
 Bits/(Pixel*Frame)                       : 0.050
 Stream size                              : 1.69 GiB (92%)
 Writing library                          : x264 core 148 r2597M e86f3a1
 Encoding settings                        : cabac=1 / ref=4 /
deblock=1:-1:-1 / analyse=0x3:0x113 / me=umh / subme=9 / psy=1 /
psy_rd=1.00:0.15 / mixed_ref=1 / me_range=24 / chroma_me=1 / trellis=2 /
 8x8dct=1 / cqm=0 / deadzone=21,11 / fast_pskip=1 / chroma_qp_offset=-3 /
 threads=32 / lookahead_threads=4 / sliced_threads=0 / nr=0 / decimate=1
 / interlaced=0 / bluray_compat=0 / constrained_intra=0 / bframes=3 /
b_pyramid=2 / b_adapt=2 / b_bias=0 / direct=3 / weightb=1 / open_gop=0 /
 weightp=2 / keyint=250 / keyint_min=25 / scenecut=40 / intra_refresh=0 /
 rc_lookahead=50 / rc=2pass / mbtree=1 / bitrate=2500 / ratetol=1.0 /
qcomp=0.60 / qpmin=0 / qpmax=69 / qpstep=4 / cplxblur=20.0 / qblur=0.5 /
 vbv_maxrate=31250 / vbv_bufsize=31250 / nal_hrd=none / filler=0 /
ip_ratio=1.40 / aq=3:1.00
 Encoded date                             : UTC 2016-10-26 20:37:12
 Tagged date                              : UTC 2016-10-26 20:37:12
 
 Audio
 ID                                       : 2
 Format                                   : AAC
 Format/Info                              : Advanced Audio Codec
 Format profile                           : LC
 Codec ID                                 : 40
 Duration                                 : 1h 37mn
 Bit rate mode                            : Constant
 Bit rate                                 : 224 Kbps
 Channel(s)                               : 2 channels
 Channel(s)_Original                      : 6 channels
 Channel positions                        : Front: L C R, Side: L R, LFE
 Sampling rate                            : 48.0 KHz
 Frame rate                               : 46.875 fps (1024 spf)
 Compression mode                         : Lossy
 Stream size                              : 156 MiB (8%)
 Language                                 : English
 Default                                  : Yes
 Alternate group                          : 1
 Encoded date                             : UTC 2016-10-26 20:37:12
 Tagged date                              : UTC 2016-10-26 20:37:12
 



 
 
 
附件名称/大小 下载次数 最后更新
Finding.Dory.2016.1080p.BluRay.H264.AAC-RARBG.torrent (39KB)  67 2016-11-02 22:00
【字幕】Finding.Dory.2016.1080p.BluRay.H264.AAC-RARBG.zip (75KB)  39 2016-11-02 22:00

最新喜欢:

cd300406cd3004...
zhwhome
精灵王
精灵王
  • 注册日期2015-07-28
  • 发帖数1161
  • 影币2332枚
  • 魔力值2090点
  • 蓝光币21克拉
  • 社区居民
  • 最爱沙发
  • 忠实会员
沙发#
发布于:2016-11-03 00:13
不错的动画片
xing1226
终生无尚荣耀蓝光粉
终生无尚荣耀蓝光粉
  • 注册日期2016-09-23
  • 发帖数76
  • 影币8890枚
  • 魔力值970点
  • 蓝光币888克拉
板凳#
发布于:2016-11-04 13:59
这个容量为什么这么少
xdk_003
圣骑士
圣骑士
  • 注册日期2015-08-10
  • 发帖数38
  • 影币4枚
  • 魔力值953点
  • 蓝光币0克拉
地板#
发布于:2016-11-06 17:44
感谢楼主分享~~~~~
szgslaw
新手
新手
  • 注册日期2016-07-18
  • 发帖数17
  • 影币28枚
  • 魔力值24点
  • 蓝光币0克拉
  • 社区居民
4楼#
发布于:2016-11-07 11:17
是高清的吗?
Victor
骑士
骑士
  • 注册日期2015-07-29
  • 发帖数82
  • 影币541枚
  • 魔力值344点
  • 蓝光币4克拉
  • 社区居民
5楼#
发布于:2016-12-10 14:03
不错的动画片
zylprotossceo
侠客
侠客
  • 注册日期2016-11-30
  • 发帖数101
  • 影币56枚
  • 魔力值158点
  • 蓝光币0克拉
6楼#
发布于:2016-12-13 08:31
感谢楼主分享~~~~~
zylprotossceo
侠客
侠客
  • 注册日期2016-11-30
  • 发帖数101
  • 影币56枚
  • 魔力值158点
  • 蓝光币0克拉
7楼#
发布于:2016-12-13 08:31
不错的动画片
游客
返回顶部