smy
smy
总版主
总版主
  • 注册日期2015-07-27
  • 发帖数1423
  • 影币65888枚
  • 魔力值2269点
  • 蓝光币1克拉
  • 社区居民
  • 忠实会员
  • 喜欢达人
  • 原创写手
阅读:842回复:5

[欧美]犯罪活动 Criminal.Activities.2015.1080p.BluRay.H264.AAC-RARBG 简繁字幕 1.80G

楼主#
更多 发布于:2016-11-02 22:05


◎译  名 犯罪活动
 ◎片  名 Criminal Activities
 ◎年  代 2015
 ◎国  家 美国
 ◎类  别 犯罪/剧情/惊悚
 ◎语  言 英语
 ◎字  幕 英文
 ◎IMDB评分 5.8/10 from 2,382 users
 ◎IMDB链接 http://www.imdb.com/title/tt3687310/
 ◎文件格式  x264+ AAC
 ◎视频尺寸  1920x800
 ◎文件大小  1CD 1.80GiB
 ◎片  长 1h 33mn
 ◎导  演 杰基·厄尔·哈利 Jackie Earle Haley
 ◎主  演 丹·史蒂文斯 Dan Stevens
 迈克尔·皮特 Michael Pitt
 约翰·特拉沃尔塔 John Travolta
 杰基·厄尔·哈利 Jackie Earle Haley
 克里斯托弗·阿波特 Christopher Abbott
 罗伯·布朗 Rob Brown
 艾迪·盖瑟吉 Edi Gathegi
 特拉维斯·阿隆·韦德 Travis Aaron Wade
 尼克·罗兰 Nick Loren
 Lisa Catara
 Morgan Wolk
 Rex Baker
 Heidi Lewandowski
 Kenny Santiago Marrero
 Gina Gheller
 
 ◎简  介
 
 
 Pic is about four young guys who reunite at an ex-classmate's funeral.
 One mentions to the others inside information on a stock that is a
guaranteed lock to make them instant millionaires. Unfortunately, the
deal goes south along with their investment. Things go from bad to
worse: one of them borrowed his share of the money from a mobster.

 Video
 ID                                       : 1
 Format                                   : AVC
 Format/Info                              : Advanced Video Codec
 Format profile                           : High@L4.1
 Format settings, CABAC                   : Yes
 Format settings, ReFrames                : 4 frames
 Codec ID                                 : avc1
 Codec ID/Info                            : Advanced Video Coding
 Duration                                 : 1h 33mn
 Bit rate                                 : 2 500 Kbps
 Width                                    : 1 920 pixels
 Height                                   : 800 pixels
 Display aspect ratio                     : 2.40:1
 Frame rate mode                          : Constant
 Frame rate                               : 23.976 (23976/1000) fps
 Color space                              : YUV
 Chroma subsampling                       : 4:2:0
 Bit depth                                : 8 bits
 Scan type                                : Progressive
 Bits/(Pixel*Frame)                       : 0.068
 Stream size                              : 1.64 GiB (92%)
 Writing library                          : x264 core 148 r2597M e86f3a1
 Encoding settings                        : cabac=1 / ref=4 /
deblock=1:-1:-1 / analyse=0x3:0x113 / me=umh / subme=9 / psy=1 /
psy_rd=1.00:0.15 / mixed_ref=1 / me_range=24 / chroma_me=1 / trellis=2 /
 8x8dct=1 / cqm=0 / deadzone=21,11 / fast_pskip=1 / chroma_qp_offset=-3 /
 threads=32 / lookahead_threads=4 / sliced_threads=0 / nr=0 / decimate=1
 / interlaced=0 / bluray_compat=0 / constrained_intra=0 / bframes=3 /
b_pyramid=2 / b_adapt=2 / b_bias=0 / direct=3 / weightb=1 / open_gop=0 /
 weightp=2 / keyint=250 / keyint_min=25 / scenecut=40 / intra_refresh=0 /
 rc_lookahead=50 / rc=2pass / mbtree=1 / bitrate=2500 / ratetol=1.0 /
qcomp=0.60 / qpmin=0 / qpmax=69 / qpstep=4 / cplxblur=20.0 / qblur=0.5 /
 vbv_maxrate=31250 / vbv_bufsize=31250 / nal_hrd=none / filler=0 /
ip_ratio=1.40 / aq=3:1.00
 Encoded date                             : UTC 2016-01-23 10:57:32
 Tagged date                              : UTC 2016-01-23 10:57:32
 
 Audio
 ID                                       : 2
 Format                                   : AAC
 Format/Info                              : Advanced Audio Codec
 Format profile                           : LC
 Codec ID                                 : 40
 Duration                                 : 1h 33mn
 Bit rate mode                            : Constant
 Bit rate                                 : 224 Kbps
 Channel(s)                               : 2 channels
 Channel(s)_Original                      : 6 channels
 Channel positions                        : Front: L C R, Side: L R, LFE
 Sampling rate                            : 48.0 KHz
 Frame rate                               : 46.875 fps (1024 spf)
 Compression mode                         : Lossy
 Stream size                              : 150 MiB (8%)
 Language                                 : English
 Default                                  : Yes
 Alternate group                          : 1
 Encoded date                             : UTC 2016-01-23 10:57:32
 Tagged date                              : UTC 2016-01-23 10:57:32
 
  

Screenshots:
 

Criminal.Activities.2015.1080p.BluRay.H264.AAC-RARBG.torrent
【字幕】Criminal.Activities.2015.1080p.BluRay.H264.AAC-RARBG.rar

最新喜欢:

aionvshenaionvs... SngKinSngKin
SngKin
终生无尚荣耀蓝光粉
终生无尚荣耀蓝光粉
  • 注册日期2016-01-25
  • 发帖数464
  • 影币11516枚
  • 魔力值1891点
  • 蓝光币894克拉
  • 社区居民
  • 忠实会员
沙发#
发布于:2016-11-03 00:05
感谢版主分享!
zhwhome
精灵王
精灵王
  • 注册日期2015-07-28
  • 发帖数1161
  • 影币2332枚
  • 魔力值2090点
  • 蓝光币21克拉
  • 社区居民
  • 最爱沙发
  • 忠实会员
板凳#
发布于:2016-11-03 00:11
支持一下哟
kaile
骑士
骑士
  • 注册日期2016-09-15
  • 发帖数224
  • 影币107枚
  • 魔力值197点
  • 蓝光币0克拉
地板#
发布于:2016-11-04 08:01
谢谢版主分享!
luosi
贫民
贫民
  • 注册日期2016-11-25
  • 发帖数4
  • 影币14枚
  • 魔力值22点
  • 蓝光币0克拉
  • 社区居民
4楼#
发布于:2016-11-25 16:51
感谢分享精品
onlytao
贫民
贫民
  • 注册日期2017-02-25
  • 发帖数1
  • 影币11枚
  • 魔力值12点
  • 蓝光币0克拉
5楼#
发布于:2017-02-25 13:07
我要来下载了
游客
返回顶部