smy
smy
总版主
总版主
  • 注册日期2015-07-27
  • 发帖数1423
  • 影币65888枚
  • 魔力值2269点
  • 蓝光币1克拉
  • 社区居民
  • 忠实会员
  • 喜欢达人
  • 原创写手
阅读:804回复:5

[欧美]绝对统治/统治权 Imperium.2016.1080p.BluRay.H264.AAC-RARBG 中英字幕 2.09G

楼主#
更多 发布于:2016-11-02 22:59


◎译  名 绝对统治/统治权
 ◎片  名 Imperium
 ◎年  代 2016
 ◎国  家 美国
 ◎类  别 剧情/犯罪/惊悚
 ◎语  言 英语
 ◎上映日期 2016-08-19(美国)
 ◎IMDb评分  6.5/10 from 10,948 users
 ◎豆瓣评分 6.1/10 from 372 users
 ◎导  演 Daniel Ragussis
 ◎主  演 丹尼尔·雷德克里夫 Daniel Radcliffe
 托妮·科莱特 Toni Collette
 伯恩·戈曼 Burn Gorman
 内斯特·卡博内尔 Nestor Carbonell
 赛斯·南里奇 Seth Numrich
 山姆·特拉梅尔 Sam Trammell
 帕维尔·萨拉耶达 Pawel Szajda
 克里斯·沙利文 Chris Sullivan
 崔西·莱茨 Tracy Letts
 德文·德鲁伊 Devin Druid
 John Michael Weatherly
 Linc Hand
 
 
 ◎简  介
 影片根据真实事件改编,丹尼尔扮演一位年轻的联邦调查局探员,深入新纳粹组织卧底,查出密谋制作脏弹的恐怖分子。影片是丹尼尔·莱格西斯的导演长片处女作。

 Video
 ID                                       : 1
 Format                                   : AVC
 Format/Info                              : Advanced Video Codec
 Format profile                           : High@L4.1
 Format settings, CABAC                   : Yes
 Format settings, ReFrames                : 4 frames
 Codec ID                                 : avc1
 Codec ID/Info                            : Advanced Video Coding
 Duration                                 : 1h 48mn
 Bit rate                                 : 2 500 Kbps
 Width                                    : 1 920 pixels
 Height                                   : 808 pixels
 Display aspect ratio                     : 2.40:1
 Frame rate mode                          : Constant
 Frame rate                               : 23.976 (23976/1000) fps
 Color space                              : YUV
 Chroma subsampling                       : 4:2:0
 Bit depth                                : 8 bits
 Scan type                                : Progressive
 Bits/(Pixel*Frame)                       : 0.067
 Stream size                              : 1.90 GiB (92%)
 Writing library                          : x264 core 148 r2597M e86f3a1
 Encoding settings                        : cabac=1 / ref=4 /
deblock=1:-1:-1 / analyse=0x3:0x113 / me=umh / subme=9 / psy=1 /
psy_rd=1.00:0.15 / mixed_ref=1 / me_range=24 / chroma_me=1 / trellis=2 /
 8x8dct=1 / cqm=0 / deadzone=21,11 / fast_pskip=1 / chroma_qp_offset=-3 /
 threads=32 / lookahead_threads=4 / sliced_threads=0 / nr=0 / decimate=1
 / interlaced=0 / bluray_compat=0 / constrained_intra=0 / bframes=3 /
b_pyramid=2 / b_adapt=2 / b_bias=0 / direct=3 / weightb=1 / open_gop=0 /
 weightp=2 / keyint=250 / keyint_min=25 / scenecut=40 / intra_refresh=0 /
 rc_lookahead=50 / rc=2pass / mbtree=1 / bitrate=2500 / ratetol=1.0 /
qcomp=0.60 / qpmin=0 / qpmax=69 / qpstep=4 / cplxblur=20.0 / qblur=0.5 /
 vbv_maxrate=31250 / vbv_bufsize=31250 / nal_hrd=none / filler=0 /
ip_ratio=1.40 / aq=3:1.00
 Encoded date                             : UTC 2016-10-20 05:19:47
 Tagged date                              : UTC 2016-10-20 05:19:47
 
 Audio
 ID                                       : 2
 Format                                   : AAC
 Format/Info                              : Advanced Audio Codec
 Format profile                           : LC
 Codec ID                                 : 40
 Duration                                 : 1h 48mn
 Bit rate mode                            : Constant
 Bit rate                                 : 224 Kbps
 Channel(s)                               : 2 channels
 Channel(s)_Original                      : 6 channels
 Channel positions                        : Front: L C R, Side: L R, LFE
 Sampling rate                            : 48.0 KHz
 Frame rate                               : 46.875 fps (1024 spf)
 Compression mode                         : Lossy
 Stream size                              : 174 MiB (8%)
 Language                                 : English
 Default                                  : Yes
 Alternate group                          : 1
 Encoded date                             : UTC 2016-10-20 05:19:47
 Tagged date                              : UTC 2016-10-20 05:19:47
  

附件名称/大小 下载次数 最后更新
Imperium.2016.1080p.BluRay.H264.AAC-RARBG.torrent (43KB)  37 2016-11-02 22:59
【字幕】Imperium.2016.1080p.BluRay.H264.AAC-RARBG.zip (77KB)  30 2016-11-02 22:59
zhwhome
精灵王
精灵王
  • 注册日期2015-07-28
  • 发帖数1161
  • 影币2332枚
  • 魔力值2090点
  • 蓝光币21克拉
  • 社区居民
  • 最爱沙发
  • 忠实会员
沙发#
发布于:2016-11-03 00:07
谢谢楼主分享
Elle
新手
新手
  • 注册日期2016-11-03
  • 发帖数9
  • 影币27枚
  • 魔力值24点
  • 蓝光币0克拉
  • 社区居民
板凳#
发布于:2016-11-03 18:17
感謝無私分享
foooming
圣骑士
圣骑士
  • 注册日期2015-09-17
  • 发帖数82
  • 影币0枚
  • 魔力值596点
  • 蓝光币0克拉
地板#
发布于:2016-11-04 00:01
感谢分享
coolming2010
骑士
骑士
  • 注册日期2015-09-10
  • 发帖数83
  • 影币7枚
  • 魔力值335点
  • 蓝光币0克拉
  • 社区居民
4楼#
发布于:2016-11-04 16:45
感谢分享
我在冰岛天气晴
新手
新手
  • 注册日期2017-01-19
  • 发帖数7
  • 影币11枚
  • 魔力值68点
  • 蓝光币0克拉
  • 社区居民
5楼#
发布于:2017-01-19 22:43
感谢分享
游客
返回顶部