smy
smy
总版主
总版主
  • 注册日期2015-07-27
  • 发帖数1423
  • 影币65888枚
  • 魔力值2269点
  • 蓝光币1克拉
  • 社区居民
  • 忠实会员
  • 喜欢达人
  • 原创写手
阅读:3325回复:78

[SeeHD原创首发]王牌逗王牌/爱上贼中贼/盗中盗/偷天特务(港)[王晶/刘德华/黄晓明/王祖蓝/刘嘉玲/郑秀文/戚薇][众星云集的王牌电影][2016年9月30日中国上映 - 2D/中国巨幕][★SeeHD原创作品,必属精品★高清无水印全球首发★] Mission.Milano.2016.1080p.WEB-DL.x264.AAC-SeeHD 中文(内嵌) 4.45 GiB

楼主#
更多 发布于:2016-11-04 09:27

 
 ◎译  名 偷天特务(港)/盗中盗/爱上贼中贼
 ◎片  名 Mission Milano
 ◎年  代 2016
 ◎国  家 中国/中国香港
 ◎类  别 喜剧/动作/冒险
 ◎语  言 普通话
 ◎字  幕 简体中文
 ◎IMDb评分  3.5/10 from 24 users
 ◎IMDb链接  http://www.imdb.com/title/tt5425144
 ◎文件格式 x264 + AAC
 ◎视频尺寸 1920x1080
 ◎文件大小 1CD 4.45 GiB
 ◎片  长 1h 43 min
 ◎导  演 王晶 Jing Wong
 ◎主  演 刘德华 Andy Lau
 黄晓明 Xiaoming Huang
 王祖蓝 Cho-lam Wong
 胡然 Michelle Hu
 欧阳娜娜 Nana Ouyang
 谢依霖 Yilin Sie
 沈腾 Teng Shen
 赵英俊 Yingjun Zhao
 戚薇 Wei Qi
 徐冬冬 Dongdong Xu
 毛俊杰 Junjie Mao
 
 
 
 ◎简  介
 
 
 
 囧探宝爷(刘德华 饰)与侠盗洛家豪(黄晓明 饰)强强联手,与世界恐怖组织抢夺“上帝种子”,所谓“上帝种子”是一种神奇的种子,无论丢在哪里,只需要一点水,就可以迅速长出参天大树。而唯恐天下不乱的恐怖组织居然拿到了这种神奇的“上帝种子”,试图改变甚至掌控这个世界。为了维护世界和平,宝爷和家豪在A梦(王祖蓝 饰)、洛家欣(欧阳娜娜 饰)等人的帮助下,冒险夺宝拯救世界的故事。
 
 花絮
 
 .有一场戏是要黄晓明攀在大厦的玻璃上面,导演给他准备的鞋上面真的有吸盘,那个吸盘吸力非常大,基本上他每次想拔出脚来时都会非常困难,他要一边用尽全力一边脸上还要表现出帅气的神态。
 
 .有只名为“肉松”的巨型泰迪显得呆萌,每次它在片场都会让演员和工作人员萌出一脸血,而它也不负重望,开门、握手、撒娇等动作样样精通。
 
 .演员胡然,在戏中造型比较炫酷,拍的时候要戴头套,因为很紧勒得头疼,挺辛苦。不过拍出来效果还是很好,她觉得一切都是值得的。
 
 .毛俊杰在影片中有很多动作戏,为了让效果更真实完美,毛俊杰开拍前就进行了动作特训,在片场也是玩命拍摄大量高难度动作场面,身上常常是青一块紫一块。5该片在北京、香港、米兰大教堂、米兰凯旋门、埃马努埃莱二世长廊等诸多地标性建筑取景,还挑选米兰的圣西罗球场拍摄重头戏
General
Format                         : Matroska
Format version                 : Version 4 / Version 2
File size                      : 4.45 GiB
Duration                       : 1 h 43 min
Overall bit rate               : 6 137 kb/s
Encoded date                   : UTC 2016-11-04 01:09:33
Writing application            : mkvmerge v7.1.0 ('Good Love') 32bit built on Jul 27 2014 12:59:18
Writing library                : libebml v1.3.0 + libmatroska v1.4.1

Video
ID                             : 1
Format                         : AVC
Format/Info                    : Advanced Video Codec
Format profile                 : High@L4
Format settings, CABAC         : Yes
Format settings, ReFrames      : 4 frames
Codec ID                       : V_MPEG4/ISO/AVC
Duration                       : 1 h 43 min
Bit rate                       : 6 000 kb/s
Width                          : 1 920 pixels
Height                         : 1 080 pixels
Display aspect ratio           : 16:9
Frame rate mode                : Constant
Frame rate                     : 24.000 FPS
Color space                    : YUV
Chroma subsampling             : 4:2:0
Bit depth                      : 8 bits
Scan type                      : Progressive
Bits/(Pixel*Frame)             : 0.121
Stream size                    : 4.31 GiB (97%)
Writing library                : x264()-core 129 - H.264/MPEG-4
Default                        : Yes
Forced                         : No

Audio
ID                             : 2
Format                         : AAC
Format/Info                    : Advanced Audio Codec
Format profile                 : LC
Codec ID                       : A_AAC
Duration                       : 1 h 43 min
Bit rate                       : 192 kb/s
Channel(s)                     : 2 channels
Channel positions              : Front: L R
Sampling rate                  : 44.1 kHz
Frame rate                     : 43.066 FPS (1024 spf)
Compression mode               : Lossy
Stream size                    : 141 MiB (3%)
Default                        : Yes
Forced                         : No


Mission.Milano.2016.1080p.WEB-DL.x264.AAC-SeeHD.torrent
hui0087
精灵王
精灵王
  • 注册日期2015-07-29
  • 发帖数220
  • 影币5158枚
  • 魔力值1598点
  • 蓝光币0克拉
  • 社区居民
  • 忠实会员
  • 喜欢达人
  • 原创写手
沙发#
发布于:2016-11-04 09:33
王牌逗王牌
wocoa
骑士
骑士
  • 注册日期2015-07-28
  • 发帖数45
  • 影币51枚
  • 魔力值390点
  • 蓝光币0克拉
  • 社区居民
  • 忠实会员
板凳#
发布于:2016-11-04 09:36
等粤语出了再看!
mitchen2015
精灵王
精灵王
  • 注册日期2015-10-05
  • 发帖数423
  • 影币1060枚
  • 魔力值847点
  • 蓝光币0克拉
  • 社区居民
  • 忠实会员
地板#
发布于:2016-11-04 09:51
感谢分享。。。谢谢。。
15128615525
圣骑士
圣骑士
  • 注册日期2016-08-18
  • 发帖数113
  • 影币1枚
  • 魔力值582点
  • 蓝光币0克拉
  • 社区居民
4楼#
发布于:2016-11-04 09:55
感谢分享。谢谢。。
yanjing
侠客
侠客
  • 注册日期2016-01-15
  • 发帖数70
  • 影币0枚
  • 魔力值142点
  • 蓝光币0克拉
5楼#
发布于:2016-11-04 10:17
太给力了,这么快就出了,站长辛苦
BadBoy_li
精灵王
精灵王
  • 注册日期2015-09-07
  • 发帖数209
  • 影币187枚
  • 魔力值799点
  • 蓝光币0克拉
  • 社区居民
  • 忠实会员
6楼#
发布于:2016-11-04 10:20
据说很神经的电影!
nasdaq
精灵王
精灵王
  • 注册日期2015-07-29
  • 发帖数128
  • 影币1716枚
  • 魔力值1024点
  • 蓝光币0克拉
  • 社区居民
  • 忠实会员
7楼#
发布于:2016-11-04 11:25
  下来看看,谢谢分享。
kongzi0001
骑士
骑士
  • 注册日期2016-10-11
  • 发帖数226
  • 影币708枚
  • 魔力值161点
  • 蓝光币2克拉
8楼#
发布于:2016-11-04 11:38
谢谢楼主分享精彩好片!
haiming8418
精灵王
精灵王
  • 注册日期2015-07-29
  • 发帖数1072
  • 影币1007枚
  • 魔力值1582点
  • 蓝光币1克拉
  • 忠实会员
9楼#
发布于:2016-11-04 12:30
非常感謝大大提供,謝謝分享!.
1234567891211
侠客
侠客
  • 注册日期2016-09-07
  • 发帖数39
  • 影币14枚
  • 魔力值118点
  • 蓝光币0克拉
10楼#
发布于:2016-11-04 12:41
超级搞笑的  现在下载看看
wingman2005
圣骑士
圣骑士
  • 注册日期2015-08-01
  • 发帖数35
  • 影币18枚
  • 魔力值652点
  • 蓝光币0克拉
  • 社区居民
  • 忠实会员
11楼#
发布于:2016-11-04 13:14
又是一锅乱七八糟的大杂烩,看看无妨!
elnado
圣骑士
圣骑士
  • 注册日期2015-08-26
  • 发帖数50
  • 影币68枚
  • 魔力值616点
  • 蓝光币0克拉
  • 社区居民
  • 忠实会员
12楼#
发布于:2016-11-04 13:38
感谢分享....
power10008
新手
新手
  • 注册日期2016-07-28
  • 发帖数21
  • 影币21枚
  • 魔力值66点
  • 蓝光币0克拉
13楼#
发布于:2016-11-04 14:16
支持好片!!!
风里密码
圣骑士
圣骑士
  • 注册日期2016-09-08
  • 发帖数214
  • 影币20枚
  • 魔力值524点
  • 蓝光币2克拉
  • 社区居民
  • 忠实会员
14楼#
发布于:2016-11-04 14:45
感谢分享。。。谢谢。
上一页
游客
返回顶部