smy
smy
总版主
总版主
  • 注册日期2015-07-27
  • 发帖数1423
  • 影币65888枚
  • 魔力值2269点
  • 蓝光币1克拉
  • 社区居民
  • 忠实会员
  • 喜欢达人
  • 原创写手
阅读:925回复:5

[欧美]纹身室 Anarchy.Parlor.2015.UNRATED.1080p.BluRay.H264.AAC-RARBG 简繁字幕 1.89G

楼主#
更多 发布于:2016-11-07 20:05


◎译  名 纹身室
 ◎片  名 Parlor
 ◎年  代 2015
 ◎国  家 美国
 ◎类  别 恐怖
 ◎语  言 英语
 ◎上映日期 2015-05-12(澳大利亚)
 ◎IMDb评分  4.6/10 from 1,340 users
 ◎IMDb链接  http://www.imdb.com/title/tt2948712/
 ◎豆瓣评分 4.5/10 from 157 users
 ◎豆瓣链接 https://movie.douban.com/subject/26101639/
 ◎高清迷整理 http://www.hdmee.com
 ◎片  长 98分钟
 ◎导  演 Devon Downs / Kenny Gage
 ◎主  演 Robert LaSardo
 Anthony Del Negro
 乔丹·詹姆斯·史密斯 Jordan James Smith
 Claire Garvey
 Ben Whalen
 Sara Fabel
 Joey Fisher
 
 
 ◎简  介
 
 
 A mysterious nomad known as the "Artist" practices a dark art form passed down through the generations.
 
 
 
 
 Anarchy.Parlor.2015.UNRATED.720p.BluRay.x264-SADPANDA
 

 Video
 ID                                       : 1
 Format                                   : AVC
 Format/Info                              : Advanced Video Codec
 Format profile                           : High@L4.1
 Format settings, CABAC                   : Yes
 Format settings, ReFrames                : 4 frames
 Codec ID                                 : avc1
 Codec ID/Info                            : Advanced Video Coding
 Duration                                 : 1h 38mn
 Bit rate                                 : 2 500 Kbps
 Width                                    : 1 920 pixels
 Height                                   : 808 pixels
 Display aspect ratio                     : 2.40:1
 Frame rate mode                          : Constant
 Frame rate                               : 23.976 (23976/1000) fps
 Color space                              : YUV
 Chroma subsampling                       : 4:2:0
 Bit depth                                : 8 bits
 Scan type                                : Progressive
 Bits/(Pixel*Frame)                       : 0.067
 Stream size                              : 1.72 GiB (92%)
 Writing library                          : x264 core 148 r2597M e86f3a1
 Encoding settings                        : cabac=1 / ref=4 /
deblock=1:-1:-1 / analyse=0x3:0x113 / me=umh / subme=9 / psy=1 /
psy_rd=1.00:0.15 / mixed_ref=1 / me_range=24 / chroma_me=1 / trellis=2 /
 8x8dct=1 / cqm=0 / deadzone=21,11 / fast_pskip=1 / chroma_qp_offset=-3 /
 threads=32 / lookahead_threads=4 / sliced_threads=0 / nr=0 / decimate=1
 / interlaced=0 / bluray_compat=0 / constrained_intra=0 / bframes=3 /
b_pyramid=2 / b_adapt=2 / b_bias=0 / direct=3 / weightb=1 / open_gop=0 /
 weightp=2 / keyint=250 / keyint_min=25 / scenecut=40 / intra_refresh=0 /
 rc_lookahead=50 / rc=2pass / mbtree=1 / bitrate=2500 / ratetol=1.0 /
qcomp=0.60 / qpmin=0 / qpmax=69 / qpstep=4 / cplxblur=20.0 / qblur=0.5 /
 vbv_maxrate=31250 / vbv_bufsize=31250 / nal_hrd=none / filler=0 /
ip_ratio=1.40 / aq=3:1.00
 Encoded date                             : UTC 2016-11-03 01:11:23
 Tagged date                              : UTC 2016-11-03 01:11:23
 
 Audio
 ID                                       : 2
 Format                                   : AAC
 Format/Info                              : Advanced Audio Codec
 Format profile                           : LC
 Codec ID                                 : 40
 Duration                                 : 1h 38mn
 Duration_LastFrame                       : 32ms
 Bit rate mode                            : Constant
 Bit rate                                 : 224 Kbps
 Channel(s)                               : 2 channels
 Channel(s)_Original                      : 6 channels
 Channel positions                        : Front: L C R, Side: L R, LFE
 Sampling rate                            : 48.0 KHz
 Frame rate                               : 46.875 fps (1024 spf)
 Compression mode                         : Lossy
 Stream size                              : 158 MiB (8%)
 Language                                 : English
 Default                                  : Yes
 Alternate group                          : 1
 Encoded date                             : UTC 2016-11-03 01:11:23
 Tagged date                              : UTC 2016-11-03 01:11:23


 
 
 

Anarchy.Parlor.2015.UNRATED.1080p.BluRay.H264.AAC-RARBG.torrent
【字幕】Anarchy.Parlor.2015.UNRATED.1080p.BluRay.H264.AAC-RARBG.zip
ropsdjl
骑士
骑士
  • 注册日期2015-07-28
  • 发帖数59
  • 影币88枚
  • 魔力值336点
  • 蓝光币0克拉
  • 社区居民
  • 忠实会员
沙发#
发布于:2016-11-07 21:50
时刻关注最喜欢的
szgslaw
新手
新手
  • 注册日期2016-07-18
  • 发帖数17
  • 影币28枚
  • 魔力值24点
  • 蓝光币0克拉
  • 社区居民
板凳#
发布于:2016-11-08 10:35
请问一下字幕直接装载吗?需不需要再设置
jemy
精灵王
精灵王
  • 注册日期2015-07-28
  • 发帖数253
  • 影币0枚
  • 魔力值1198点
  • 蓝光币0克拉
地板#
发布于:2016-11-08 19:58
时刻关注最喜欢的
jingzhongyue
侠客
侠客
  • 注册日期2016-01-05
  • 发帖数116
  • 影币138枚
  • 魔力值82点
  • 蓝光币47克拉
  • 社区居民
4楼#
发布于:2016-11-13 15:28
谢谢楼主分享谢谢楼主分享
sqdfxgzfxgz
侠客
侠客
  • 注册日期2016-11-20
  • 发帖数171
  • 影币64枚
  • 魔力值90点
  • 蓝光币0克拉
  • 社区居民
  • 忠实会员
5楼#
发布于:2017-02-06 23:02
纹身室
游客
返回顶部