smy
smy
总版主
总版主
  • 注册日期2015-07-27
  • 发帖数1423
  • 影币65888枚
  • 魔力值2269点
  • 蓝光币1克拉
  • 社区居民
  • 忠实会员
  • 喜欢达人
  • 原创写手
阅读:960回复:12

[欧美]圆梦巨人/吹梦巨人(港)/好心眼儿巨人 The.BFG.2016.1080p.WEB-DL.DD5.1.H264-FGT 简繁字幕 4.08G

楼主#
更多 发布于:2016-11-07 20:35
◎译  名 圆梦巨人/吹梦巨人(港)/好心眼儿巨人
◎片  名 The BFG
◎年  代 2016
◎国  家 美国/英国
◎类  别 奇幻/冒险
◎语  言 英语
◎上映日期 2016-10-14(中国大陆)/2016-07-01(美国)/2016-05-14(戛纳电影节)
◎IMDb评分  6.7/10 from 17,175 users
◎豆瓣评分 6.8/10 from 15,774 users
◎片  长 117分钟
◎导  演 史蒂文·斯皮尔伯格 Steven Spielberg
◎主  演 鲁比·巴恩希尔 Ruby Barnhill
马克·里朗斯 Mark Rylance
比尔·哈德尔 Bill Hader
丽贝卡·豪尔 Rebecca Hall
佩内洛普·威尔顿 Penelope Wilton
杰梅奈·克莱门特 Jemaine Clement
亚当·戈德利 Adam Godley
迈克尔·亚当思韦特 Michael Adamthwaite
丹尼尔·巴孔 Daniel Bacon

 
◎简  介
, ~: u+ W% H: t' s& g' {4 Y4 F- `7 w
 
孤儿院里一个名叫苏菲(鲁比·巴恩希尔 Ruby Barnhill 饰)的小女孩一天夜里睡不着觉,她在“巫师出没的时刻”看到一个和楼房一样高大的巨人(马克·里朗斯 Mark Rylance 饰)沿街走过来。巨人发现苏菲看见了他,于是便把她拎回了巨人国。
这个巨人是好心眼儿巨人,好心眼儿巨人专门搜集好梦,把梦分门别类地装在一个个玻璃瓶子里,再挨家挨户地把捕捉来的好梦吹到孩子们睡觉的卧室里。他与其他巨人国中的巨人不一样。其他巨人都吃人,他只吃自己种植的食物。
为了阻止其他巨人继续吃人,聪明的苏菲她让BFG调制出一个关于巨人吃小孩的噩梦,并想要把这个梦吹到英国女王的卧室里。两人由此开始了一段奇幻的冒险之旅。一路上,他们面临着巨人国吃人巨人们的重重威胁;与此同时,小女孩与好心眼儿巨人也从一开始的彼此不信任,成长出一场非同寻常的友谊。

 Video
 ID                                       : 1
 Format                                   : AVC
 Format/Info                              : Advanced Video Codec
 Format profile                           : High@L4
 Format settings, CABAC                   : Yes
 Format settings, ReFrames                : 5 frames
 Codec ID                                 : V_MPEG4/ISO/AVC
 Duration                                 : 1h 58mn
 Bit rate                                 : 4 436 Kbps
 Width                                    : 1 920 pixels
 Height                                   : 804 pixels
 Display aspect ratio                     : 2.40:1
 Frame rate mode                          : Constant
 Frame rate                               : 23.976 (24000/1001) fps
 Color space                              : YUV
 Chroma subsampling                       : 4:2:0
 Bit depth                                : 8 bits
 Scan type                                : Progressive
 Bits/(Pixel*Frame)                       : 0.120
 Stream size                              : 3.66 GiB (90%)
 Title                                    : The.BFG.2016.1080p.WEB-DL.DD5.1.H264-FGT
 Language                                 : English
 Default                                  : Yes
 Forced                                   : No
 Color range                              : Limited
 Color primaries                          : BT.709
 Transfer characteristics                 : BT.709
 Matrix coefficients                      : BT.709
 
 Audio
 ID                                       : 2
 Format                                   : AC-3
 Format/Info                              : Audio Coding 3
 Mode extension                           : CM (complete main)
 Format settings, Endianness              : Big
 Codec ID                                 : A_AC3
 Duration                                 : 1h 58mn
 Bit rate mode                            : Constant
 Bit rate                                 : 384 Kbps
 Channel(s)                               : 6 channels
 Channel positions                        : Front: L C R, Side: L R, LFE
 Sampling rate                            : 48.0 KHz
 Frame rate                               : 31.250 fps (1536 spf)
 Compression mode                         : Lossy
 Stream size                              : 324 MiB (8%)
 Title                                    : The.BFG.2016.1080p.WEB-DL.DD5.1.H264-FGT
 Language                                 : English
 Default                                  : Yes
 Forced                                   : No
 
 
 
 
 
 
 
附件名称/大小 下载次数 最后更新
The.BFG.2016.1080p.WEB-DL.DD5.1.H264-FGT.torrent (82KB)  129 2016-11-07 20:34
【字幕】The.BFG.2016.1080p.WEB-DL.DD5.1.H264-FGT.zip (55KB)  94 2016-11-07 20:35

最新喜欢:

spritsprit johnlee1979johnle... lzq8277lzq827...
看世界
圣骑士
圣骑士
  • 注册日期2015-09-13
  • 发帖数269
  • 影币779枚
  • 魔力值392点
  • 蓝光币0克拉
  • 社区居民
  • 忠实会员
沙发#
发布于:2016-11-07 20:51
网站正常了,真开心啊!
lzq8277
侠客
侠客
  • 注册日期2016-10-25
  • 发帖数35
  • 影币8枚
  • 魔力值75点
  • 蓝光币0克拉
  • 社区居民
板凳#
发布于:2016-11-07 20:52
喜欢喜欢
lzq8277
侠客
侠客
  • 注册日期2016-10-25
  • 发帖数35
  • 影币8枚
  • 魔力值75点
  • 蓝光币0克拉
  • 社区居民
地板#
发布于:2016-11-07 20:53
网站内容丰富  支持!
zhwhome
精灵王
精灵王
  • 注册日期2015-07-28
  • 发帖数1161
  • 影币2332枚
  • 魔力值2090点
  • 蓝光币21克拉
  • 社区居民
  • 最爱沙发
  • 忠实会员
4楼#
发布于:2016-11-08 00:50
不错的奇幻片
talentgwb
侠客
侠客
  • 注册日期2016-08-18
  • 发帖数67
  • 影币4枚
  • 魔力值154点
  • 蓝光币0克拉
5楼#
发布于:2016-11-08 02:29
谢谢楼主分享,好片
hui0087
精灵王
精灵王
  • 注册日期2015-07-29
  • 发帖数220
  • 影币5158枚
  • 魔力值1598点
  • 蓝光币0克拉
  • 社区居民
  • 忠实会员
  • 喜欢达人
  • 原创写手
6楼#
发布于:2016-11-08 09:18
不是说还在上映的尽量不要发吗
kaile
骑士
骑士
  • 注册日期2016-09-15
  • 发帖数224
  • 影币107枚
  • 魔力值197点
  • 蓝光币0克拉
7楼#
发布于:2016-11-09 12:03
Many thanks!!!
yufei86
侠客
侠客
  • 注册日期2016-11-11
  • 发帖数32
  • 影币38枚
  • 魔力值162点
  • 蓝光币0克拉
  • 社区居民
8楼#
发布于:2016-11-11 17:27
感谢分享  没想到已经出了
li258735177
圣骑士
圣骑士
  • 注册日期2015-07-30
  • 发帖数138
  • 影币16枚
  • 魔力值747点
  • 蓝光币4克拉
  • 社区居民
  • 忠实会员
9楼#
发布于:2016-11-12 20:51
谢谢楼主分享
紫夜战狼
侠客
侠客
  • 注册日期2016-11-13
  • 发帖数14
  • 影币15枚
  • 魔力值104点
  • 蓝光币0克拉
  • 社区居民
  • 忠实会员
10楼#
发布于:2016-11-13 00:08
谢谢楼主分享 ~~
hpt87
贫民
贫民
  • 注册日期2016-12-15
  • 发帖数3
  • 影币13枚
  • 魔力值28点
  • 蓝光币0克拉
11楼#
发布于:2016-12-15 06:57
谢谢你的分享
mountain831099
贫民
贫民
  • 注册日期2017-01-02
  • 发帖数4
  • 影币13枚
  • 魔力值14点
  • 蓝光币0克拉
12楼#
发布于:2017-01-07 15:01
謝謝大大無私分享趕快下載
游客
返回顶部