smy
smy
总版主
总版主
  • 注册日期2015-07-27
  • 发帖数1423
  • 影币65888枚
  • 魔力值2269点
  • 蓝光币1克拉
  • 社区居民
  • 忠实会员
  • 喜欢达人
  • 原创写手
阅读:3311回复:37

[欧美]佩小姐的奇幻城堡 Miss.Peregrines.Home.For.Peculiar.Children.2016.1080p.KORSUB.HDRip.x264.AAC2.0-STUTTERSHIT 中英字幕 3.06G

楼主#
更多 发布于:2016-11-09 22:44

 ◎译  名 佩小姐的奇幻城堡
 ◎片  名 Miss Peregrine's Home for Peculiar Children
 ◎年  代 2016
 ◎国  家 美国
 ◎类  别 剧情 / 奇幻 / 冒险
 ◎语  言 英语
 ◎上映日期 2016-12-02(中国大陆) / 2016-09-30(美国)
 ◎IMDb评分  7.0/10 from 32,604 users
 ◎IMDb链接  http://www.imdb.com/title/tt1935859
 ◎豆瓣评分 7.4/10 from 3,480 users
 ◎豆瓣链接   https://movie.douban.com/subject/7051830/
 ◎片  长 127分钟
 ◎导  演 蒂姆·波顿 Tim Burton
 ◎主  演 阿萨·巴特菲尔德 Asa Butterfield
伊娃·格林 Eva Green
塞缪尔·杰克逊 Samuel L. Jackson
朱迪·丹奇 Judi Dench
艾拉·珀内尔 Ella Purnell
克里斯·奥多德 Chris O'Dowd
金·迪肯斯 Kim Dickens
艾莉森·珍妮 Allison Janney
特伦斯·斯坦普 Terence Stamp
鲁伯特·艾弗雷特 Rupert Everett
芬利·麦克米伦 Finlay MacMillan
艾拉·瓦勒斯泰特 Ella Wahlestedt
米洛·帕克 Milo Parker
匹克西·戴夫斯 Pixie Davies
澳澜·琼斯 O-Lan Jones
 
 ◎简  介  
    杰克(阿萨·巴特菲尔德 Asa Butterfield
饰)的爷爷自杰克还小的时候,就会常说床边故事给他听,故事中有许多拥有特殊能力的小孩。爷爷神秘死亡后,留下了关于这个属于另一个时空世界种种谜团的线索,杰克循着这些线索,进入了这个神秘的世界,发现这群奇怪的孩子真实存在,他们住在这里是为了躲避可怕的变异怪兽。随着杰克的到来,危险也同时抵达,杰克需要与这群孩子一起,抵御黑暗力量。
 

 Video
 ID                                       : 1
 Format                                   : AVC
 Format/Info                              : Advanced Video Codec
 Format profile                           : Baseline@L4
 Format settings, CABAC                   : No
 Format settings, ReFrames                : 1 frame
 Codec ID                                 : avc1
 Codec ID/Info                            : Advanced Video Coding
 Duration                                 : 2h 6mn
 Bit rate                                 : 3 200 Kbps
 Width                                    : 1 920 pixels
 Height                                   : 1 080 pixels
 Display aspect ratio                     : 16:9
 Frame rate mode                          : Constant
 Frame rate                               : 29.930 fps
 Color space                              : YUV
 Chroma subsampling                       : 4:2:0
 Bit depth                                : 8 bits
 Scan type                                : Progressive
 Bits/(Pixel*Frame)                       : 0.052
 Stream size                              : 2.86 GiB (93%)
 Title                                    :
Miss.Peregrine,s.Home.For.Peculiar.Children.2016.1080p.KORSUB.HDRip.x264.AAC2.0-STUTTERSHIT
 Writing library                          : x264 core 148 r2705 3f5ed56
 Encoding settings                        : cabac=0 / ref=1 /
deblock=1:0:0 / analyse=0x1:0x111 / me=hex / subme=2 / psy=1 /
psy_rd=1.00:0.00 / mixed_ref=0 / me_range=16 / chroma_me=1 / trellis=0 /
 8x8dct=0 / cqm=0 / deadzone=21,11 / fast_pskip=1 / chroma_qp_offset=0 /
 threads=6 / lookahead_threads=2 / sliced_threads=0 / nr=0 / decimate=1 /
 interlaced=0 / bluray_compat=0 / constrained_intra=0 / bframes=0 /
weightp=0 / keyint=250 / keyint_min=25 / scenecut=40 / intra_refresh=0 /
 rc_lookahead=10 / rc=abr / mbtree=1 / bitrate=3200 / ratetol=1.0 /
qcomp=0.60 / qpmin=0 / qpmax=69 / qpstep=4 / ip_ratio=1.40 / aq=1:1.00
 
 Audio
 ID                                       : 2
 Format                                   : AAC
 Format/Info                              : Advanced Audio Codec
 Format profile                           : LC
 Codec ID                                 : 40
 Duration                                 : 2h 6mn
 Bit rate mode                            : Constant
 Bit rate                                 : 224 Kbps
 Channel(s)                               : 2 channels
 Channel positions                        : Front: L R
 Sampling rate                            : 44.1 KHz
 Frame rate                               : 43.066 fps (1024 spf)
 Compression mode                         : Lossy
 Stream size                              : 203 MiB (6%)
 Title                                    :
Miss.Peregrine,s.Home.For.Peculiar.Children.2016.1080p.KORSUB.HDRip.x264.AAC2.0-STUTTERSHIT
 Default                                  : Yes
 Alternate group                          : 1
  

 ◎截  图




Miss.Peregrines.Home.For.Peculiar.Children.2016.1080p.KORSUB.HDRip.x264.AAC2.0-STUTTERSHIT.srt
【字幕】Miss.Peregrines.Home.For.Peculiar.Children.2016.1080p.KORSUB.HDRip.x264.AAC2.0-STUTTERSHIT.rar
tpw815423
精灵王
精灵王
  • 注册日期2015-07-29
  • 发帖数620
  • 影币2934枚
  • 魔力值1558点
  • 蓝光币3克拉
  • 社区居民
  • 最爱沙发
  • 忠实会员
沙发#
发布于:2016-11-09 23:02
感謝大大無私分享
zhwhome
精灵王
精灵王
  • 注册日期2015-07-28
  • 发帖数1161
  • 影币2332枚
  • 魔力值2090点
  • 蓝光币21克拉
  • 社区居民
  • 最爱沙发
  • 忠实会员
板凳#
发布于:2016-11-09 23:16
谢分享下载
sgnx
圣骑士
圣骑士
  • 注册日期2016-07-07
  • 发帖数62
  • 影币13枚
  • 魔力值538点
  • 蓝光币0克拉
  • 社区居民
  • 忠实会员
地板#
发布于:2016-11-09 23:31
只有字幕没有种子啊QAQ
SngKin
终生无尚荣耀蓝光粉
终生无尚荣耀蓝光粉
  • 注册日期2016-01-25
  • 发帖数464
  • 影币11516枚
  • 魔力值1891点
  • 蓝光币894克拉
  • 社区居民
  • 忠实会员
4楼#
发布于:2016-11-10 00:17
没有种子。
maxtrix
精灵王
精灵王
  • 注册日期2015-09-08
  • 发帖数161
  • 影币937枚
  • 魔力值895点
  • 蓝光币0克拉
  • 社区居民
  • 忠实会员
5楼#
发布于:2016-11-10 07:48
怎么两个都是字幕
suine
侠客
侠客
  • 注册日期2016-10-05
  • 发帖数11
  • 影币15枚
  • 魔力值112点
  • 蓝光币0克拉
6楼#
发布于:2016-11-10 09:48
版主,没种子啊,两个都是字幕
hwgl
圣骑士
圣骑士
  • 注册日期2015-07-30
  • 发帖数194
  • 影币0枚
  • 魔力值417点
  • 蓝光币1克拉
  • 社区居民
7楼#
发布于:2016-11-10 10:36
哈哈哈,等到波顿的新片了,可为啥没有御用演员德普呢
hwgl
圣骑士
圣骑士
  • 注册日期2015-07-30
  • 发帖数194
  • 影币0枚
  • 魔力值417点
  • 蓝光币1克拉
  • 社区居民
8楼#
发布于:2016-11-10 10:37
就是啊,没有种子文件呢
xinghuan718
圣骑士
圣骑士
  • 注册日期2016-04-14
  • 发帖数362
  • 影币50枚
  • 魔力值528点
  • 蓝光币0克拉
  • 社区居民
  • 忠实会员
9楼#
发布于:2016-11-10 11:20
种子还没出来么
axuer1987
骑士
骑士
  • 注册日期2015-08-28
  • 发帖数78
  • 影币0枚
  • 魔力值284点
  • 蓝光币0克拉
  • 社区居民
10楼#
发布于:2016-11-10 13:43
这个字幕是有了。。 但是没有电影。
youngfatzi
骑士
骑士
  • 注册日期2015-08-16
  • 发帖数23
  • 影币17枚
  • 魔力值454点
  • 蓝光币0克拉
  • 社区居民
  • 忠实会员
11楼#
发布于:2016-11-10 15:15
这几天就靠这部神剧而活了,预告很惊艳,不知道正片,是不是也很让人眼前一亮呢?
deadsky13
侠客
侠客
  • 注册日期2016-08-03
  • 发帖数11
  • 影币0枚
  • 魔力值142点
  • 蓝光币0克拉
12楼#
发布于:2016-11-10 15:26
应该很不错,谢谢分享!
gdjyhdc
终生无尚荣耀蓝光粉
终生无尚荣耀蓝光粉
  • 注册日期2016-05-06
  • 发帖数249
  • 影币9503枚
  • 魔力值1150点
  • 蓝光币888克拉
  • 社区居民
  • 忠实会员
13楼#
发布于:2016-11-10 20:53
佩小姐的奇幻城堡
1609917
圣骑士
圣骑士
  • 注册日期2015-09-12
  • 发帖数11
  • 影币1枚
  • 魔力值590点
  • 蓝光币0克拉
  • 社区居民
  • 忠实会员
14楼#
发布于:2016-11-10 23:21
?????????????
上一页
游客
返回顶部