gananicus
管理员
管理员
  • 注册日期2015-07-28
  • 发帖数461
  • 影币14184枚
  • 魔力值340点
  • 蓝光币0克拉
  • 社区居民
阅读:10134回复:483

[动作]生化危机6:终章/恶灵古堡6:最终章(台)【未删减106分钟版/中英双语字幕】Resident.Evil.The.Final.Chapter.2016.1080p.WEB-DL.DD5.1.H264-FGT 3.68GB

楼主#
更多 发布于:2017-03-15 07:56


◎译  名 生化危机6:终章/恶灵古堡6:最终章(台)
◎片  名 Resident Evil: The Final Chapter
◎年  代 2016
◎国  家 美国
◎类  别 动作/科幻/惊悚/恐怖
◎语  言 英语
◎上映日期 2016-12-23(日本)/2017-01-27(美国)/2017-02-17(中国大陆)
◎IMDb评分  6.3/10 from 8,032 users
◎IMDb链接  http://www.imdb.com/title/tt2592614/
◎豆瓣评分 7.0/10 from 1,683 users
◎豆瓣链接 https://movie.douban.com/subject/20471852/
◎片  长 106分钟
◎导  演 保罗·安德森 Paul W.S. Anderson
◎主  演 米拉·乔沃维奇 Milla Jovovich
伊恩·格雷 Iain Glen
艾丽·拉特 Ali Larter
肖恩·罗伯茨 Shawn Roberts
欧文·马肯 Eoin Macken
威廉·莱维 William Levy
鲁比·罗丝 Ruby Rose
罗拉 Rola
艾尔·安德森 Ever Anderson
密尔顿·施尔 Milton Schorr
西沃恩·霍奇森 Siobhan Hodgson
李准基 Joon-gi Lee
凯文·奥托 Kevin Otto
保罗·汉普赛尔 Paul Hampshire

◎简  介

故事紧接《生化危机5:惩罚》,在华盛顿特区爱丽丝被威斯克背叛后人类几乎要失去最后的希望。作为唯一的幸存者,也是人类对抗僵尸大军的最后防线,爱丽丝必须回到噩梦开始的地方——浣熊市。在那里雨伞公司正在集结所有的力量企图对残余的幸存者发起最后的打击。
在和时间赛跑的过程中,爱丽丝将和昔日的朋友一起对抗僵尸和最新变种怪物。爱丽丝失去了自己的超能力,加上雨伞公司的疯狂进攻,这将是她拯救人类以来打得最艰难的一仗。

Video
ID                                       : 1
Format                                   : AVC
Format/Info                              : Advanced Video Codec
Format profile                           : High@L4
Format settings, CABAC                   : Yes
Format settings, ReFrames                : 5 frames
Codec ID                                 : V_MPEG4/ISO/AVC
Duration                                 : 1h 47mn
Bit rate                                 : 4 440 Kbps
Width                                    : 1 920 pixels
Height                                   : 792 pixels
Display aspect ratio                     : 2.40:1
Frame rate mode                          : Constant
Frame rate                               : 23.976 fps
Color space                              : YUV
Chroma subsampling                       : 4:2:0
Bit depth                                : 8 bits
Scan type                                : Progressive
Bits/(Pixel*Frame)                       : 0.122
Stream size                              : 3.32 GiB (90%)
Title                                    : Resident.Evil.The.Final.Chapter.2016.1080p.WEB-DL.DD5.1.H264-FGT
Language                                 : English
Default                                  : Yes
Forced                                   : No
Color range                              : Limited
Color primaries                          : BT.709
Transfer characteristics                 : BT.709
Matrix coefficients                      : BT.709

Audio
ID                                       : 2
Format                                   : AC-3
Format/Info                              : Audio Coding 3
Mode extension                           : CM (complete main)
Format settings, Endianness              : Big
Codec ID                                 : A_AC3
Duration                                 : 1h 47mn
Bit rate mode                            : Constant
Bit rate                                 : 384 Kbps
Channel(s)                               : 6 channels
Channel positions                        : Front: L C R, Side: L R, LFE
Sampling rate                            : 48.0 KHz
Frame rate                               : 31.250 fps (1536 spf)
Compression mode                         : Lossy
Stream size                              : 294 MiB (8%)
Title                                    : Resident.Evil.The.Final.Chapter.2016.1080p.WEB-DL.DD5.1.H264-FGT
Language                                 : English
Default                                  : Yes
Forced                                   : No

Menu
00:00:00.000                             : en:1
00:05:38.672                             : en:2
00:11:17.177                             : en:3
00:16:59.352                             : en:4
00:22:35.229                             : en:5
00:27:20.973                             : en:6
00:33:37.557                             : en:7
00:40:46.611                             : en:8
00:46:35.209                             : en:9
00:53:17.778                             : en:10
01:03:17.711                             : en:11
01:10:46.910                             : en:12
01:15:36.574                             : en:13
01:22:56.847                             : en:14
01:28:31.890                             : en:15
01:35:06.451                             : en:16


◎影视截图



附件名称/大小 下载次数 最后更新
Resident.Evil.The.Final.Chapter.2016.1080p.WEB-DL.DD5.1.H264-FGT.torrent (75KB)  2408 03-15 07:56
Resident.Evil.The.Final.Chapter.2016.1080p.WEB-DL.DD5.1.H264-FGT.ass (92KB)  1098 03-15 12:53
alannwoo
侠客
侠客
  • 注册日期2016-12-04
  • 发帖数47
  • 影币8枚
  • 魔力值107点
  • 蓝光币0克拉
沙发#
发布于:2017-03-15 08:05
谢谢 分享
林中小鸟
圣骑士
圣骑士
  • 注册日期2016-04-19
  • 发帖数66
  • 影币865枚
  • 魔力值802点
  • 蓝光币0克拉
  • 社区居民
  • 忠实会员
板凳#
发布于:2017-03-15 08:12
不知道有没有中文字幕?谢谢分享高清电影。
gananicus
管理员
管理员
  • 注册日期2015-07-28
  • 发帖数461
  • 影币14184枚
  • 魔力值340点
  • 蓝光币0克拉
  • 社区居民
地板#
发布于:2017-03-15 08:14
林中小鸟:不知道有没有中文字幕?谢谢分享高清电影。回到原帖
有字幕会标出来
wjt3035613
圣骑士
圣骑士
  • 注册日期2015-07-28
  • 发帖数195
  • 影币0枚
  • 魔力值672点
  • 蓝光币0克拉
4楼#
发布于:2017-03-15 08:14
有没有字幕啊。
风里密码
圣骑士
圣骑士
  • 注册日期2016-09-08
  • 发帖数199
  • 影币7枚
  • 魔力值430点
  • 蓝光币0克拉
  • 社区居民
  • 忠实会员
5楼#
发布于:2017-03-15 08:16
谢谢分享高清电影
boatsun
圣骑士
圣骑士
  • 注册日期2016-02-17
  • 发帖数89
  • 影币284枚
  • 魔力值832点
  • 蓝光币0克拉
  • 社区居民
  • 忠实会员
6楼#
发布于:2017-03-15 08:16
谢谢 分享
iiqq
侠客
侠客
  • 注册日期2017-02-25
  • 发帖数16
  • 影币31枚
  • 魔力值98点
  • 蓝光币0克拉
  • 社区居民
7楼#
发布于:2017-03-15 08:22
老桥段了!
2000zqz
骑士
骑士
  • 注册日期2016-12-05
  • 发帖数51
  • 影币13枚
  • 魔力值259点
  • 蓝光币0克拉
  • 社区居民
  • 忠实会员
8楼#
发布于:2017-03-15 08:23
谢谢分享高清电影
zshamo
侠客
侠客
  • 注册日期2016-09-11
  • 发帖数63
  • 影币6枚
  • 魔力值216点
  • 蓝光币0克拉
  • 社区居民
  • 忠实会员
9楼#
发布于:2017-03-15 08:23
谢谢 分享
5ocn
圣骑士
圣骑士
  • 注册日期2016-02-29
  • 发帖数156
  • 影币38枚
  • 魔力值516点
  • 蓝光币0克拉
  • 社区居民
  • 忠实会员
10楼#
发布于:2017-03-15 08:26
谢谢 分享
realize
圣骑士
圣骑士
  • 注册日期2016-09-22
  • 发帖数262
  • 影币31枚
  • 魔力值492点
  • 蓝光币0克拉
  • 社区居民
  • 忠实会员
11楼#
发布于:2017-03-15 08:27
谢谢 分享 ~
kun_8834761
圣骑士
圣骑士
  • 注册日期2015-08-20
  • 发帖数226
  • 影币542枚
  • 魔力值574点
  • 蓝光币0克拉
12楼#
发布于:2017-03-15 08:33
终于等到你~~谢谢楼主~~~
lihoga
精灵王
精灵王
  • 注册日期2015-09-13
  • 发帖数197
  • 影币2137枚
  • 魔力值1097点
  • 蓝光币0克拉
  • 社区居民
  • 忠实会员
13楼#
发布于:2017-03-15 08:34
种子文件下载不了!
SeeHDAccount
骑士
骑士
  • 注册日期2016-12-01
  • 发帖数90
  • 影币30枚
  • 魔力值313点
  • 蓝光币0克拉
  • 社区居民
  • 忠实会员
14楼#
发布于:2017-03-15 08:37
支持楼主发片,谢谢分享
上一页
游客
返回顶部