holdwon
总版主
总版主
  • 注册日期2017-03-01
  • 发帖数42
  • 影币4213枚
  • 魔力值144点
  • 蓝光币0克拉
阅读:15629回复:340

[SeeHD原创首发]西游伏妖篇/西游2:伏妖篇【内嵌中英双字版】Journey.to.the.West.Demon.Chapter.2017.1080p.WEB-DL.x264.AAC-SeeHD 2.38G

楼主#
更多 发布于:2017-04-15 10:16


【影片原名】Journey to the West: The Demons Strike Back
【外文别名】西游2:伏妖篇/西游降魔篇2/西游·降魔篇2/西游·降魔2
 "Journey to the West: Demon Chapter" - China (original title)
 "Journey to the West 2" - International (English title) (short title)
【中文译名】西游伏妖篇
【出品公司】Star Overseas
【出品年代】2017 年
【上映日期】2017年1月28日 中国
【影片级别】Canada:PG (British Columbia) | Hong Kong:IIA | Ireland:12A (IFCO) | Singapore:PG | UK:12A
【IMDB评分】5.7/10 (734 votes)
【国  家】中国
【类  别】冒险/喜剧/奇幻
【导  演】徐克 Hark Tsui
【主  演】吴亦凡 Kris
 林更新 Gengxin Lin
 姚晨 Chen Yao
 林允 Yun Lin
 包贝尔 Bei'Er Bao
 巴特尔 Mengke Bateer
 杨一威 Yiwei Yang
 董成鹏 Da bt4k.com Peng
 王丽坤 Likun Wang
 汪铎 Duo Wang
 张美娥 Mei'e Zhang
 Tze Chung Lam (as Chi-chung Lam)
 Mei'e Zhang ... Big daughter
 
 
【内容简介】
 
        A monk and his three disciples continue on bt4k.com their journey to battle demons.
 
        作为《西游降魔篇》的后继故事,唐三藏在上集感化了杀死段小姐的齐天大圣,并收其为徒后,带着孙悟空、猪八戒及沙僧,一行四人踏上西天取经之旅,路途凶险,除魔伏妖,师徒四人也在取经的过程中有个各自的成长与改变。
 
 电影《西游伏妖篇》作为2013年周星驰导演电影《西游降魔篇》的后继故事,讲述了唐三藏(吴亦凡
饰)在上集感化了杀死段小姐的齐天大圣(林更新 饰),并收其为徒后,带着孙悟空、猪八戒(杨一威&汪铎 饰)及沙僧(巴特尔
饰),师徒一行四人踏上西天取经之旅。路途凶险,除魔伏妖,师徒四人也在取经的过程中有了各自的成长与改变。
 
精彩对白
 
 曾经痛苦,才知道真正的痛苦;曾经执着,才能放下执着;曾经牵挂,才能了无牵挂。
 
 老头:你们还要不要脸了?
 唐僧:请你看完再说,也请你不要捅我。
 老头:我就捅,你吹牛吹大点啊。
 
 蜘蛛精:我是蜘蛛,你有没有搞错啊!
 猪八戒:我也是只猪,我没搞错啊。
 
 唐僧:我跟你说过多少次了,降妖伏魔靠的是感化,刚才你没看到她是带着微笑吗?
 孙悟空:微笑?她带着微笑是要吃你呀师傅。
 唐僧:你太离谱了!你看人家的笑容多真诚。
 孙悟空:我笑的更真诚,你猜我是爱你呢?还是要杀你呢?
 
 唐僧:国师,我一直有个疑问,你的戏法bt4k.com是故意变得这么假么?
 九宫真人:大师,你我都是同道中人,这世上哪有什么真的法术,这是真是假就不要过于追究了。
 
 猪悟能:这国王怎么比师傅还二啊?
 孙悟空:不能,没人二得过师傅,猪头。
 
 唐僧:为师一个打一百几十个,是很平常的事,但是我低调我不说,我的如来神掌多厉害,因为我低调我也不说。
 
 沙净:二师兄没有水了,去打水。
 八戒:水没有了,为什么要我去打水,你去不行吗,你的这个想法是怎么产生的呢?
 
 唐僧:八戒,要小心点哦,祸从口出,沉默是金,我认识很多杀猪的。
 
 小善:如果你再遇到一个喜欢你的人,你还会辜负她吗?其实我的理想很简单,找一个如意郎君,组织一个小家庭生一个小宝贝,然后简简单单地过生活,那个人,就是你。
 
【关于《西游伏妖篇》你应该知道的7件事】
 
1、本片是《西游降魔篇》(2013)的续集。
 
2、周星驰主动邀约徐克合作执导。
 
3、本片是徐克与林更新第三次合作。
 
4、这部影片成本约4亿人民币。
 
5、该片是徐克导演继《龙门飞甲》(2011)、《狄仁杰之神都龙王》(2013)后第3部作品登上IMAX大银幕的电影。
 
6、林允为了“小善”这个角色进行了两个多月的专业舞蹈训练。林允透露,戏中的舞蹈动作是经过导演徐克重新改编过的。
 
7、饰演孙悟空的林更新透露红孩儿是徐克导演完全用特效做出来的,表演的时候并没有对打的演员,分镜头也是导演画的故事版。
 
 
General
Format                         : MPEG-4
Format profile                 : Base Media
Codec ID                       : isom
File size                      : 2.37 GiB
Duration                       : 1h 48mn
Overall bit rate               : 3 126 Kbps
Writing application            : Lavf57.25.100

Video
ID                             : 1
Format                         : AVC
Format/Info                    : Advanced Video Codec
Format profile                 : High@L4.0
Format settings, CABAC         : Yes
Format settings, ReFrames      : 4 frames
Codec ID                       : avc1
Codec ID/Info                  : Advanced Video Coding
Duration                       : 1h 48mn
Bit rate                       : 2 992 Kbps
Width                          : 1 920 pixels
Height                         : 1 040 pixels
Display aspect ratio           : 1.85:1
Original display aspect ratio  : 1.85:1
Frame rate mode                : Constant
Frame rate                     : 24.000 fps
Color space                    : YUV
Chroma subsampling             : 4:2:0
Bit depth                      : 8 bits
Scan type                      : Progressive
Bits/(Pixel*Frame)             : 0.062
Stream size                    : 2.27 GiB (96%)

Audio
ID                             : 2
Format                         : AAC
Format/Info                    : Advanced Audio Codec
Format profile                 : LC
Codec ID                       : 40
Duration                       : 1h 48mn
Bit rate mode                  : Constant
Bit rate                       : 128 Kbps
Channel(s)                     : 2 channels
Channel positions              : Front: L R
Sampling rate                  : 44.1 KHz
Compression mode               : Lossy
Stream size                    : 99.3 MiB (4%)

 

【影片截图】





SmY出品必属精品
Journey.to.the.West.Demon.Chapter.2017.1080p.WEB-DL.x264.AAC-SeeHD.torrent
bbschuang
骑士
骑士
  • 注册日期2016-02-28
  • 发帖数67
  • 影币103枚
  • 魔力值288点
  • 蓝光币0克拉
沙发#
发布于:2017-04-15 10:34
楼主威武,感谢感谢
stck
骑士
骑士
  • 注册日期2015-07-30
  • 发帖数10
  • 影币11枚
  • 魔力值502点
  • 蓝光币0克拉
  • 社区居民
  • 忠实会员
板凳#
发布于:2017-04-15 12:29
感谢感谢
hchtchl
精灵王
精灵王
  • 注册日期2016-02-01
  • 发帖数508
  • 影币2394枚
  • 魔力值995点
  • 蓝光币0克拉
  • 社区居民
  • 忠实会员
地板#
发布于:2017-04-15 13:35
感谢感谢 !
zhwhome
精灵王
精灵王
  • 注册日期2015-07-28
  • 发帖数1111
  • 影币2276枚
  • 魔力值1982点
  • 蓝光币0克拉
  • 社区居民
  • 最爱沙发
  • 忠实会员
4楼#
发布于:2017-04-15 15:43
不错的,支持下。
sjoky
新手
新手
  • 注册日期2016-02-01
  • 发帖数8
  • 影币14枚
  • 魔力值28点
  • 蓝光币0克拉
5楼#
发布于:2017-04-15 15:48
楼主威武,感谢感谢
圣天星云
侠客
侠客
  • 注册日期2017-01-26
  • 发帖数26
  • 影币506枚
  • 魔力值269点
  • 蓝光币0克拉
  • 社区居民
  • 忠实会员
6楼#
发布于:2017-04-15 16:02
感谢楼主
502994479
骑士
骑士
  • 注册日期2016-10-08
  • 发帖数35
  • 影币8枚
  • 魔力值278点
  • 蓝光币0克拉
7楼#
发布于:2017-04-15 16:58
6666666666666
yanjun1698
侠客
侠客
  • 注册日期2017-01-21
  • 发帖数27
  • 影币25枚
  • 魔力值206点
  • 蓝光币0克拉
  • 忠实会员
8楼#
发布于:2017-04-15 17:41
内嵌了字幕,下载了,谢谢楼主。
31119425
精灵王
精灵王
  • 注册日期2015-07-28
  • 发帖数64
  • 影币11枚
  • 魔力值1316点
  • 蓝光币0克拉
9楼#
发布于:2017-04-15 18:31
一般 还是支持一下~
城头晓日
侠客
侠客
  • 注册日期2016-11-18
  • 发帖数33
  • 影币11枚
  • 魔力值96点
  • 蓝光币0克拉
10楼#
发布于:2017-04-15 18:37
感谢楼主分享
唇上之歌
骑士
骑士
  • 注册日期2016-11-25
  • 发帖数57
  • 影币58枚
  • 魔力值245点
  • 蓝光币0克拉
  • 社区居民
  • 忠实会员
11楼#
发布于:2017-04-15 19:06
感谢楼主分享
abio
侠客
侠客
  • 注册日期2017-01-02
  • 发帖数80
  • 影币49枚
  • 魔力值162点
  • 蓝光币0克拉
12楼#
发布于:2017-04-15 19:51
感谢楼主分享
zwc789
贫民
贫民
  • 注册日期2017-04-08
  • 发帖数2
  • 影币9枚
  • 魔力值12点
  • 蓝光币0克拉
  • 社区居民
13楼#
发布于:2017-04-15 19:59
谢谢分享!好片
zyx20160101
侠客
侠客
  • 注册日期2016-12-08
  • 发帖数39
  • 影币58枚
  • 魔力值100点
  • 蓝光币0克拉
14楼#
发布于:2017-04-15 20:01
一般般般
上一页
游客
返回顶部