ZXCVBNM0
侠客
侠客
  • 注册日期2016-10-01
  • 发帖数26
  • 影币208枚
  • 魔力值183点
  • 蓝光币0克拉
  • 社区居民
  • 忠实会员
阅读:340回复:4

[电影]公牛的社会化问题Socialisation of a Bull/Socializacija bika.1998 480P 839MB

楼主#
更多 发布于:2017-05-06 13:03





公牛的社会化问题


《公牛的社会化问题》是1998年上映的动画电影,导演是ZvonkoCoh/MilanEric。

中文名公牛的社会化问题制片地区斯洛文尼亚导    演ZvonkoCoh/MilanEric编    剧ZvonkoCoh/MilanEric类    型动画/手绘漫画上映时间1998年对白语言斯洛文尼亚语

公牛的社会化问题影片简介



斯洛文尼亚影史上的第一部动画长片,当然在东欧动画电影史上占有绝对经典的地位,想起东欧动画,大家可能只知道捷克,波兰,匈牙利等这些传统的动画制作强国,在国际上倍受称赞,其实东欧一些小国的动画制作水平也是很高的,比如克罗地亚和斯洛伐克,还有斯洛文尼亚,前南联盟瓦解之后,很多巴尔干半岛优秀的动画电影人分散到各个新兴国家,继续制作优秀的动画作品,在制作风格上他们继承了前南斯拉夫动画的独特风格,用手绘的方式创作带有很强的政治讽刺性和针砭时弊的动画,这些作品往往具有鲜明的东欧漫画色彩和政治幽默感,借以看似荒诞离奇的情节和怪诞疯狂的影像来隐喻创作者对当时社会和政治制度的看法,与我们所看到的西欧传统动画有很大区别,与时下充斥银幕的美日3D卡通的风格更是相距甚远。而98年这部《公牛的社会化问题?》可以算是此类讽刺动画中的代表作了。
关于这部动画,我想说的是无论是喜欢电影还是喜欢动画的朋友都应该好好地看一遍,真正优秀的动画作品它的艺术性和可看度绝对不会比一部好电影差,它是我这两年来所看到的最精彩的原创动画作品之一,看这部作品就像是经历了一场疯狂的梦,创作者几乎使用了所有2D动画的表现手法,而且每一个画面都是完全手绘的,其中还加入了类似老胶片一样的刮痕效果和大段极富创意的铅笔写意画面,加上古怪而急速的背景音乐和变幻无常的色彩,使整部动画充满了实验动画所特有的夸张而狂乱的气氛。也许你从来没有看过如此疯狂而搞怪的一部动画,但如果你看过了,绝对会对东欧优秀的艺术动画作品有更深的认识。
本片在当时曾经被禁过,所以无法公开发行,唯一的机会只能是在欧洲一些著名的动画电影节上才能看到,无疑是一种遗憾。
1999年第42届德国莱比锡国际动画和纪录电影展的最佳原创动画金奖,2000年第15届克罗地亚萨格勒布国际动画电影节最佳创作奖。2004年入选国际动画协会所评选的20世纪100部最佳动画电影之一。
General
Complete name                  : D:\迅雷下载\Socializacija.Bika.1998.SLOVENiAN.WEBRip.x264-baltazar.mp4
Format                         : MPEG-4
Format profile                 : Base Media
Codec ID                       : isom (isom/iso2/avc1/mp41)
File size                      : 840 MiB
Duration                       : 1h 18mn
Overall bit rate               : 1 499 Kbps
Writing application            : Lavf54.63.104
Video
ID                             : 1
Format                         : AVC
Format/Info                    : Advanced Video Codec
Format profile                 : Main@L3.1
Format settings, CABAC         : Yes
Format settings, ReFrames      : 4 frames
Codec ID                       : avc1
Codec ID/Info                  : Advanced Video Coding
Duration                       : 1h 18mn
Bit rate                       : 1 400 Kbps
Width                          : 720 pixels
Height                         : 544 pixels
Display aspect ratio           : 4:3
Frame rate mode                : Constant
Frame rate                     : 25.000 fps
Color space                    : YUV
Chroma subsampling             : 4:2:0
Bit depth                      : 8 bits
Scan type                      : Progressive
Bits/(Pixel*Frame)             : 0.143
Stream size                    : 774 MiB (92%)
Writing library                : x264 core 120
Encoding settings              : cabac=1 / ref=3 / deblock=1:0:0 / analyse=0x1:0x111 / me=hex / subme=7 / psy=1 / psy_rd=1.00:0.00 / mixed_ref=1 / me_range=16 / chroma_me=1 / trellis=1 / 8x8dct=0 / cqm=0 / deadzone=21,11 / fast_pskip=1 / chroma_qp_offset=-2 / threads=18 / sliced_threads=0 / nr=0 / decimate=1 / interlaced=0 / bluray_compat=0 / constrained_intra=0 / bframes=3 / b_pyramid=2 / b_adapt=2 / b_bias=0 / direct=1 / weightb=1 / open_gop=0 / weightp=2 / keyint=75 / keyint_min=38 / scenecut=0 / intra_refresh=0 / rc_lookahead=50 / rc=abr / mbtree=1 / bitrate=1400 / ratetol=1.0 / qcomp=0.60 / qpmin=3 / qpmax=69 / qpstep=4 / vbv_maxrate=1512 / vbv_bufsize=1512 / nal_hrd=none / ip_ratio=1.40 / aq=1:1.00
Color range                    : Limited
Color primaries                : BT.601 NTSC
Transfer characteristics       : BT.709
Matrix coefficients            : BT.601
Audio
ID                             : 2
Format                         : AAC
Format/Info                    : Advanced Audio Codec
Format profile                 : LC
Codec ID                       : 40
Duration                       : 1h 18mn
Bit rate mode                  : Constant
Bit rate                       : 112 Kbps
Channel(s)                     : 2 channels
Channel positions              : Front: L R
Sampling rate                  : 48.0 KHz
Frame rate                     : 46.875 fps (1024 spf)
Compression mode               : Lossy
Stream size                    : 62.7 MiB (7%)
Default                        : Yes
Alternate group                : 1



磁力链接magnet:?xt=urn:btih:7F83945FB1C0F50C89AB1293A30152DFE6EAB676
百度云:http://pan.baidu.com/s/1hs0yWTY
  
[ZXCVBNM0于2017-05-28 11:42编辑了帖子]

图片

yixiqiao
精灵王
精灵王
  • 注册日期2016-04-13
  • 发帖数774
  • 影币1306枚
  • 魔力值296点
  • 蓝光币0克拉
  • 社区居民
  • 最爱沙发
  • 忠实会员
  • 追星一族
沙发#
发布于:2017-05-06 13:18
图片都挂了
精灵的叶子
骑士
骑士
  • 注册日期2016-09-19
  • 发帖数109
  • 影币206枚
  • 魔力值462点
  • 蓝光币0克拉
  • 社区居民
  • 忠实会员
板凳#
发布于:2017-05-06 17:45
豆瓣8.6,应该值得看,谢谢楼主
excited
侠客
侠客
  • 注册日期2017-01-16
  • 发帖数32
  • 影币73枚
  • 魔力值72点
  • 蓝光币0克拉
  • 社区居民
地板#
发布于:2017-05-06 18:36
yixiqiao:图片都挂了回到原帖
我直接点开就行了啊 应该要登百度账号
tony2011
贫民
贫民
  • 注册日期2017-05-07
  • 发帖数2
  • 影币12枚
  • 魔力值2点
  • 蓝光币0克拉
4楼#
发布于:2017-05-07 23:19
游客
返回顶部