福利发放鸡
侠客
侠客
  • 注册日期2017-03-24
  • 发帖数10
  • 影币119枚
  • 魔力值130点
  • 蓝光币0克拉
  • 社区居民
  • 忠实会员
阅读:579回复:3

[犯罪]跨国大追捕:我是警察 Im.A.Policeman.2016.1080i.CCTV6.HDTV.H.264.DD2.0-FLSS.ts 5.59G

楼主#
更多 发布于:2017-05-16 17:53

图片:2906.esy.es_SS_00003.jpg

图片:2906.esy.es_SS_00004.jpg

图片:2906.esy.es_SS_00005.jpg

图片:2906.esy.es_SS_00008.jpg

图片:2906.esy.es_SS_00006.jpg

图片:2906.esy.es_SS_00007.jpg




General
ID                                       : 1 (0x1)
Complete name                            : Im.A.Policeman.2016.1080i.CCTV6.HDTV.H.264.DD2.0-FLSS.ts
Format                                   : MPEG-TS
File size                                : 5.60 GiB
Duration                                 : 1 h 29 min
Overall bit rate mode                    : Variable
Overall bit rate                         : 8 938 kb/s
 
Video
ID                                       : 256 (0x100)
Menu ID                                  : 1 (0x1)
Format                                   : AVC
Format/Info                              : Advanced Video Codec
Format profile                           : High@L4
Format settings, CABAC                   : Yes
Format settings, ReFrames                : 3 frames
Codec ID                                 : 27
Duration                                 : 1 h 29 min
Bit rate                                 : 8 043 kb/s
Width                                    : 1 920 pixels
Height                                   : 1 080 pixels
Display aspect ratio                     : 16:9
Frame rate                               : 25.000 FPS
Standard                                 : Component
Color space                              : YUV
Chroma subsampling                       : 4:2:0
Bit depth                                : 8 bits
Scan type                                : Interlaced
Scan type, store method                  : Separated fields
Scan order                               : Top Field First
Bits/(Pixel*Frame)                       : 0.155
Stream size                              : 5.04 GiB (90%)
Color range                              : Limited
Color primaries                          : BT.709
Transfer characteristics                 : BT.709
Matrix coefficients                      : BT.709
 
Audio
ID                                       : 257 (0x101)
Menu ID                                  : 1 (0x1)
Format                                   : AC-3
Format/Info                              : Audio Coding 3
Format settings, Endianness              : Big
Codec ID                                 : 129
Duration                                 : 1 h 29 min
Bit rate mode                            : Constant
Bit rate                                 : 448 kb/s
Channel(s)                               : 2 channels
Channel positions                        : Front: L R
Sampling rate                            : 48.0 kHz
Frame rate                               : 31.250 FPS (1536 spf)
Bit depth                                : 16 bits
Compression mode                         : Lossy
Delay relative to video                  : -257 ms
Stream size                              : 287 MiB (5%)
Language                                 : English
Service kind                             : Complete Main
 
Menu
ID                                       : 4096 (0x1000)
Menu ID                                  : 1 (0x1)
Duration                                 : 1 h 29 min
List                                     : 256 (0x100) (AVC) / 257 (0x101) (AC-3, English)
Language                                 :  / English
Service name                             : CCTV6
Service provider                         : BGCTV
Service type                             : user defined

剧情简介:
警校刚毕业的雷霄被绥河市刑警队队长聂国斌选中潜入以钟鼎为首的假钞集团卧底。雷霄冒着生命危险,与犯罪分子机智周旋。钟鼎逃亡到俄罗斯后,雷霄在俄方警察娜塔莎、斯塔斯巧妙配合下,终于将钟鼎等人绳之以法。


下载地址:
http://pan.baidu.com/s/1cCMUYE
fengmin212
骑士
骑士
  • 注册日期2016-12-03
  • 发帖数132
  • 影币63枚
  • 魔力值250点
  • 蓝光币0克拉
  • 社区居民
  • 忠实会员
沙发#
发布于:2017-05-16 19:19
感谢分享!
lly1971
精灵王
精灵王
  • 注册日期2015-08-06
  • 发帖数2626
  • 影币2872枚
  • 魔力值1184点
  • 蓝光币0克拉
  • 社区居民
  • 最爱沙发
  • 忠实会员
板凳#
发布于:2017-05-16 23:20
感谢感谢!
lzh17909
圣骑士
圣骑士
  • 注册日期2015-10-14
  • 发帖数296
  • 影币27枚
  • 魔力值340点
  • 蓝光币0克拉
地板#
发布于:2017-05-17 19:35
感谢分享!
游客
返回顶部