gananicus
管理员
管理员
  • 注册日期2015-07-28
  • 发帖数677
  • 影币20251枚
  • 魔力值633点
  • 蓝光币1克拉
  • 社区居民
阅读:2388回复:64

[爱情]美女与野兽/美女与野兽2017【中文字幕】" 艾玛·沃森/丹·史蒂文斯主演美国奇幻爱情大片".Beauty.and.the.Beast.2017.1080p.HC.WEBRip.x264.AAC2.0-STU 4.12GB

楼主#
更多 发布于:2017-05-17 09:57


◎译  名 美女与野兽
◎片  名 Beauty and
the
Beast
◎年  代 2017
◎产  地 美国
◎类  别 爱情/奇幻/歌舞
◎语  言 英语
◎上映日期 2017-03-17(中国大陆)/2017-03-17(美国)
◎IMDb评分  7.7/10
from 99,319 users
◎IMDb链接  http://www.imdb.com/title/tt2771200/
◎豆瓣评分 7.4/10 from
112,850 users
◎豆瓣链接 https://movie.douban.com/subject/25900945/
◎BT之家整理 http://www.btbtt.co
◎片  长 130分钟
◎导  演 比尔·康顿 Bill
Condon
◎主  演 艾玛·沃森 Emma Watson
 丹·史蒂文斯 Dan Stevens
 卢克·伊万斯
Luke Evans
 凯文·克莱恩 Kevin Kline
 乔什·盖德 Josh Gad
 伊万·麦克格雷格
Ewan McGregor
 伊恩·麦克莱恩 Ian McKellen
 艾玛·汤普森 Emma
Thompson
 斯坦利·图齐 Stanley Tucci
 古古·姆巴塔-劳 Gugu
Mbatha-Raw
 奥德拉·麦当娜 Audra McDonald
 内森·麦克 Nathan
Mack
 哈蒂·莫拉汉 Hattie Morahan
 迈克尔·吉普森 Michael
Jibson
 水野索诺娅 Sonoya Mizuno
 亨利·加勒特 Henry
Garrett
 戴尔·布兰斯顿 Dale Branston

◎简  介

 贝儿(艾玛·沃森 Emma
Watson 饰)和小镇上的其他女孩不同,是一个热爱阅读和幻想的姑娘,孔武有力英俊强壮的加斯顿(卢克·伊万斯 Luke Evans
饰)发誓要娶贝儿为妻,但贝儿却一眼看穿了他的自私和虚伪,拒不从命。某日,贝儿的父亲莫里斯(凯文·克莱恩 Kevin Kline
饰)迷路误打误撞之下来到了一座荒凉破败的城堡中,那里居住着样貌可怖半人半兽的野兽(丹·史蒂文斯 Dan Stevens
饰)。
 因为偷摘了城堡里种植的玫瑰,莫里斯被野兽囚禁了起来,得知此消息的贝儿赶到城堡,要求和父亲作交换。就这样,贝儿开始了和野兽的同居生活。在会说话的茶壶太太(艾玛·汤普森
Emma Thompson 饰)、烛台卢米亚(伊万·麦克格雷格 Ewan McGregor 饰)和时钟葛士华(伊恩·麦克莱恩 Ian McKellen
饰)的照顾和帮助下,贝儿渐渐发现,野兽在丑陋的外表下,隐藏了一颗善良温柔的心。实际上,野兽的真实身份是一位王子,因受到了女巫的诅咒而沦落至此,而贝儿,是解除诅咒最后的,也是唯一的希望。

◎获奖情况

 第26届MTV电影奖  (2017)
 MTV电影奖
年度电影
 MTV电影奖 最佳表演 艾玛·沃森
 MTV电影奖 最佳吻戏(提名) 艾玛·沃森 / 丹·史蒂文斯
 MTV电影奖
最佳银幕组合(提名) 卢克·伊万斯 / 乔什·加德

Video
ID                                  
    : 1
Format                                   : AVC
Format/Info        
                      : Advanced Video Codec
Format profile                
          : High@L4.1
Format settings, CABAC  
                 : Yes
Format settings, ReFrames                : 4
frames
Codec ID                                 : avc1
Codec ID/Info    
                       : Advanced Video Coding
Duration                      
          : 2h 4mn
Bit rate                                 : 4 500
Kbps
Width                                    : 1 920 pixels
Height        
                           : 800 pixels
Display aspect ratio                
    : 2.40:1
Frame rate mode                          : Constant
Frame
rate                               : 25.000 fps
Color space                
             : YUV
Chroma subsampling                       : 4:2:0
Bit
depth                                : 8 bits
Scan type                      
         : Progressive
Bits/(Pixel*Frame)                       :
0.117
Stream size                              : 3.92 GiB (95%)
Title    
                               :
Beauty.and.the.Beast.2017.1080p.HC.WEBRip.x264.AAC2.0-STUTTERSHIT
Writing
library                          : x264 core 148 r2597M e86f3a1
Encoding
settings                        : cabac=1 / ref=4 / deblock=1:0:0 /
analyse=0x3:0x113 / me=umh / subme=8 / psy=1 / psy_rd=1.00:0.00 / mixed_ref=1 /
me_range=16 / chroma_me=1 / trellis=1 / 8x8dct=1 / cqm=0 / deadzone=21,11 /
fast_pskip=1 / chroma_qp_offset=-2 / threads=40 / lookahead_threads=6 /
sliced_threads=0 / nr=0 / decimate=1 / interlaced=0 / bluray_compat=0 /
constrained_intra=0 / bframes=3 / b_pyramid=2 / b_adapt=2 / b_bias=0 / direct=3
/ weightb=1 / open_gop=0 / weightp=2 / keyint=250 / keyint_min=25 / scenecut=40
/ intra_refresh=0 / rc_lookahead=50 / rc=abr / mbtree=1 / bitrate=4500 /
ratetol=1.0 / qcomp=0.60 / qpmin=0 / qpmax=69 / qpstep=4 / ip_ratio=1.40 /
aq=1:1.00

Audio
ID                                       :
2
Format                                   : AAC
Format/Info              
                : Advanced Audio Codec
Format profile                      
    : LC
Codec ID                                 : 40
Duration          
                      : 2h 4mn
Duration_LastFrame                       :
32ms
Bit rate mode                            : Constant
Bit rate        
                         : 224 Kbps
Channel(s)                              
: 2 channels
Channel positions                        : Front: L
R
Sampling rate                            : 48.0 KHz
Frame rate          
                    : 46.875 fps (1024 spf)
Compression mode                
        : Lossy
Stream size                              : 199 MiB
(5%)
Title                                    :
Beauty.and.the.Beast.2017.1080p.HC.WEBRip.x264.AAC2.0-STUTTERSHIT
Default    
                             : Yes
Alternate group                          :
1

附件名称/大小 下载次数 最后更新
Beauty.and.the.Beast.2017.1080p.HC.WEBRip.x264.AAC2.0-STUTTERSHIT.torrent (83KB)  304 05-17 09:57
leecxo
圣骑士
圣骑士
  • 注册日期2016-04-18
  • 发帖数36
  • 影币1枚
  • 魔力值722点
  • 蓝光币2克拉
  • 社区居民
  • 忠实会员
沙发#
发布于:2017-05-17 10:02
谢谢分享,谢谢
orcsman
侠客
侠客
  • 注册日期2016-06-26
  • 发帖数132
  • 影币30枚
  • 魔力值138点
  • 蓝光币0克拉
板凳#
发布于:2017-05-17 10:15
多谢分享, 至少是个1080P哈.
jero2
骑士
骑士
  • 注册日期2016-04-26
  • 发帖数118
  • 影币22枚
  • 魔力值413点
  • 蓝光币14克拉
  • 社区居民
  • 忠实会员
地板#
发布于:2017-05-17 10:20
谢谢分享,谢谢
jero2
骑士
骑士
  • 注册日期2016-04-26
  • 发帖数118
  • 影币22枚
  • 魔力值413点
  • 蓝光币14克拉
  • 社区居民
  • 忠实会员
4楼#
发布于:2017-05-17 10:20
谢谢分享,谢谢
pydjc
骑士
骑士
  • 注册日期2016-11-18
  • 发帖数33
  • 影币0枚
  • 魔力值523点
  • 蓝光币0克拉
  • 社区居民
  • 忠实会员
5楼#
发布于:2017-05-17 10:22
感谢分享。好!
zod2045
骑士
骑士
  • 注册日期2017-01-10
  • 发帖数96
  • 影币9枚
  • 魔力值488点
  • 蓝光币1克拉
  • 社区居民
  • 忠实会员
6楼#
发布于:2017-05-17 10:41
谢谢太棒了真及时哈哈哈
lampc123
圣骑士
圣骑士
  • 注册日期2016-11-30
  • 发帖数307
  • 影币58枚
  • 魔力值621点
  • 蓝光币0克拉
  • 忠实会员
7楼#
发布于:2017-05-17 10:45
谢谢分享,谢谢
yueyaer
骑士
骑士
  • 注册日期2016-06-20
  • 发帖数54
  • 影币2枚
  • 魔力值506点
  • 蓝光币1克拉
  • 社区居民
  • 忠实会员
8楼#
发布于:2017-05-17 11:18
感谢分享
半醉神经刀
骑士
骑士
  • 注册日期2017-02-24
  • 发帖数85
  • 影币537枚
  • 魔力值398点
  • 蓝光币0克拉
  • 社区居民
  • 忠实会员
9楼#
发布于:2017-05-17 11:19
清晰度怎么样啊,截图太小不好判断
馒头带肉
侠客
侠客
  • 注册日期2017-03-03
  • 发帖数51
  • 影币22枚
  • 魔力值242点
  • 蓝光币0克拉
  • 社区居民
10楼#
发布于:2017-05-17 11:31
谢谢分享,谢谢
DragonLong
骑士
骑士
  • 注册日期2017-02-27
  • 发帖数206
  • 影币208枚
  • 魔力值324点
  • 蓝光币0克拉
  • 社区居民
  • 忠实会员
11楼#
发布于:2017-05-17 12:58
HC是高清枪版啊。。。
dy1218
精灵王
精灵王
  • 注册日期2015-07-29
  • 发帖数517
  • 影币286枚
  • 魔力值869点
  • 蓝光币70克拉
  • 社区居民
  • 忠实会员
12楼#
发布于:2017-05-17 13:23
谢谢分享
firebd2012
骑士
骑士
  • 注册日期2016-06-16
  • 发帖数58
  • 影币16枚
  • 魔力值513点
  • 蓝光币0克拉
  • 社区居民
  • 忠实会员
13楼#
发布于:2017-05-17 13:34
莫非还是枪版的...
apple50
骑士
骑士
  • 注册日期2016-11-12
  • 发帖数36
  • 影币0枚
  • 魔力值354点
  • 蓝光币0克拉
14楼#
发布于:2017-05-17 13:40
感谢楼主分享
上一页
游客
返回顶部