福利发放鸡
论坛版主
论坛版主
  • 注册日期2017-03-24
  • 发帖数124
  • 影币1346枚
  • 魔力值562点
  • 蓝光币0克拉
  • 社区居民
  • 忠实会员
  • 原创写手
阅读:973回复:11

[纪录片]“一带一路”国际合作高峰论坛文艺晚会《共赴千年之约 同唱和平颂歌》 Millennial.Road.20170514.REPEAT.1080i.CCTV1.HDTV.H.264.DD5.1-FLSS.ts 4.10G

楼主#
更多 发布于:2017-05-17 13:52

图片:2906.esy.es_SS_00001.jpg

图片:2906.esy.es_SS_00002.jpg

图片:2906.esy.es_SS_00003.jpg

图片:2906.esy.es_SS_00004.jpg

图片:2906.esy.es_SS_00005.jpg

图片:2906.esy.es_SS_00006.jpg


General
ID                                       : 1 (0x1)
Complete name                            : Millennial.Road.20170514.REPEAT.1080i.CCTV1.HDTV.H.264.DD5.1-FLSS.ts
Format                                   : MPEG-TS
File size                                : 4.10 GiB
Duration                                 : 1 h 9 min
Overall bit rate mode                    : Variable
Overall bit rate                         : 8 448 kb/s
 
Video
ID                                       : 256 (0x100)
Menu ID                                  : 1 (0x1)
Format                                   : AVC
Format/Info                              : Advanced Video Codec
Format profile                           : High@L4
Format settings, CABAC                   : Yes
Format settings, ReFrames                : 2 frames
Codec ID                                 : 27
Duration                                 : 1 h 9 min
Bit rate                                 : 7 643 kb/s
Width                                    : 1 920 pixels
Height                                   : 1 080 pixels
Display aspect ratio                     : 16:9
Frame rate                               : 25.000 FPS
Color space                              : YUV
Chroma subsampling                       : 4:2:0
Bit depth                                : 8 bits
Scan type                                : MBAFF
Scan type, store method                  : Interleaved fields
Scan order                               : Top Field First
Bits/(Pixel*Frame)                       : 0.147
Stream size                              : 3.71 GiB (90%)
 
Audio
ID                                       : 257 (0x101)
Menu ID                                  : 1 (0x1)
Format                                   : AC-3
Format/Info                              : Audio Coding 3
Format settings, Endianness              : Big
Codec ID                                 : 129
Duration                                 : 1 h 9 min
Bit rate mode                            : Constant
Bit rate                                 : 384 kb/s
Channel(s)                               : 6 channels
Channel positions                        : Front: L C R, Side: L R, LFE
Sampling rate                            : 48.0 kHz
Frame rate                               : 31.250 FPS (1536 spf)
Bit depth                                : 16 bits
Compression mode                         : Lossy
Delay relative to video                  : -781 ms
Stream size                              : 191 MiB (5%)
Language                                 : English
Service kind                             : Complete Main
 
Menu
ID                                       : 4096 (0x1000)
Menu ID                                  : 1 (0x1)
Duration                                 : 1 h 9 min
List                                     : 256 (0x100) (AVC) / 257 (0x101) (AC-3, English)
Language                                 :  / English
Service name                             : CCTV1
Service provider                         : BGCTV
Service type                             : user defined


晚会简介:
“一带一路”国际合作高峰论坛,是新中国成立以来由我国首倡举办的层级最高、规模最大的主场外交活动。开幕式晚会在国家大剧院举办,晚会通过歌舞、戏曲等形式,表达了热爱和平、创新共享的中国态度。


资源简介:
CCTV-1 综合频道高清 重播版 有线电视录制 1080i/TS源码 8Mbps


下载地址:
http://pan.baidu.com/s/1gfP4dgf
excited
侠客
侠客
  • 注册日期2017-01-16
  • 发帖数44
  • 影币92枚
  • 魔力值120点
  • 蓝光币0克拉
  • 社区居民
沙发#
发布于:2017-05-17 14:04
百度云链接挂了,求补
福利发放鸡
论坛版主
论坛版主
  • 注册日期2017-03-24
  • 发帖数124
  • 影币1346枚
  • 魔力值562点
  • 蓝光币0克拉
  • 社区居民
  • 忠实会员
  • 原创写手
板凳#
发布于:2017-05-17 14:05
excited:百度云链接挂了,求补回到原帖
没挂呀,可以访问的!您那里怎么显示?
福利发放鸡
论坛版主
论坛版主
  • 注册日期2017-03-24
  • 发帖数124
  • 影币1346枚
  • 魔力值562点
  • 蓝光币0克拉
  • 社区居民
  • 忠实会员
  • 原创写手
地板#
发布于:2017-05-17 14:06
excited:百度云链接挂了,求补回到原帖
这个是刚刚生成的新连接,我们这里显示已经有两位网友成功开始下载了
yixiqiao
精灵王
精灵王
  • 注册日期2016-04-13
  • 发帖数814
  • 影币1676枚
  • 魔力值440点
  • 蓝光币22克拉
  • 社区居民
  • 最爱沙发
  • 忠实会员
  • 原创写手
  • 追星一族
4楼#
发布于:2017-05-17 15:05
很棒的录制版 支持楼主
大理国
骑士
骑士
  • 注册日期2016-09-18
  • 发帖数19
  • 影币201枚
  • 魔力值298点
  • 蓝光币0克拉
  • 忠实会员
5楼#
发布于:2017-05-17 19:52
感谢楼主分享
老狼CZL
新手
新手
  • 注册日期2017-01-06
  • 发帖数8
  • 影币18枚
  • 魔力值18点
  • 蓝光币0克拉
6楼#
发布于:2017-05-17 20:08
好片源
厉害了我的国,晚会精美绝伦,美仑美奂。
sun111moon
骑士
骑士
  • 注册日期2016-08-18
  • 发帖数59
  • 影币124枚
  • 魔力值260点
  • 蓝光币0克拉
  • 社区居民
  • 忠实会员
7楼#
发布于:2017-05-18 09:49
谢谢,一直在找呢,厉害!!
zh1968
骑士
骑士
  • 注册日期2016-11-17
  • 发帖数80
  • 影币126枚
  • 魔力值274点
  • 蓝光币0克拉
  • 社区居民
  • 忠实会员
8楼#
发布于:2017-05-18 12:48
谢谢分享
excited
侠客
侠客
  • 注册日期2017-01-16
  • 发帖数44
  • 影币92枚
  • 魔力值120点
  • 蓝光币0克拉
  • 社区居民
9楼#
发布于:2017-05-19 13:19
福利发放鸡:这个是刚刚生成的新连接,我们这里显示已经有两位网友成功开始下载了回到原帖
没挂 感谢楼主
lampc123
圣骑士
圣骑士
  • 注册日期2016-11-30
  • 发帖数301
  • 影币60枚
  • 魔力值567点
  • 蓝光币0克拉
  • 忠实会员
10楼#
发布于:2017-05-20 08:18
感谢楼主分享
beyondhing99
侠客
侠客
  • 注册日期2015-09-28
  • 发帖数229
  • 影币1枚
  • 魔力值43点
  • 蓝光币0克拉
11楼#
发布于:2017-05-21 23:24
ssssssssssssssssssssssss
游客
返回顶部