福利发放鸡
论坛版主
论坛版主
  • 注册日期2017-03-24
  • 发帖数43
  • 影币518枚
  • 魔力值446点
  • 蓝光币0克拉
  • 社区居民
  • 忠实会员
  • 原创写手
阅读:699回复:5

[犯罪]跨国大追捕:符拉迪沃斯托克的枪声 Vladivostok.2016.1080i.CCTV6.HDTV.H.264.DD2.0-FLSS.ts 5.58G

楼主#
更多 发布于:2017-05-17 14:03

图片:2906.esy.es_SS_00001.jpg

图片:2906.esy.es_SS_00003.jpg

图片:2906.esy.es_SS_00004.jpg

图片:2906.esy.es_SS_00005.jpg

图片:2906.esy.es_SS_00006.jpg

图片:2906.esy.es_SS_00007.jpg


General
ID                                       : 1 (0x1)
Complete name                            : Vladivostok.2016.1080i.CCTV6.HDTV.H.264.DD2.0-FLSS.ts
Format                                   : MPEG-TS
File size                                : 5.58 GiB
Duration                                 : 1 h 29 min
Overall bit rate mode                    : Variable
Overall bit rate                         : 8 937 kb/s
 
Video
ID                                       : 256 (0x100)
Menu ID                                  : 1 (0x1)
Format                                   : AVC
Format/Info                              : Advanced Video Codec
Format profile                           : High@L4
Format settings, CABAC                   : Yes
Format settings, ReFrames                : 3 frames
Codec ID                                 : 27
Duration                                 : 1 h 29 min
Bit rate                                 : 8 043 kb/s
Width                                    : 1 920 pixels
Height                                   : 1 080 pixels
Display aspect ratio                     : 16:9
Frame rate                               : 25.000 FPS
Standard                                 : Component
Color space                              : YUV
Chroma subsampling                       : 4:2:0
Bit depth                                : 8 bits
Scan type                                : Interlaced
Scan type, store method                  : Separated fields
Scan order                               : Top Field First
Bits/(Pixel*Frame)                       : 0.155
Stream size                              : 5.02 GiB (90%)
Color range                              : Limited
Color primaries                          : BT.709
Transfer characteristics                 : BT.709
Matrix coefficients                      : BT.709
 
Audio
ID                                       : 257 (0x101)
Menu ID                                  : 1 (0x1)
Format                                   : AC-3
Format/Info                              : Audio Coding 3
Format settings, Endianness              : Big
Codec ID                                 : 129
Duration                                 : 1 h 29 min
Bit rate mode                            : Constant
Bit rate                                 : 448 kb/s
Channel(s)                               : 2 channels
Channel positions                        : Front: L R
Sampling rate                            : 48.0 kHz
Frame rate                               : 31.250 FPS (1536 spf)
Bit depth                                : 16 bits
Compression mode                         : Lossy
Delay relative to video                  : -481 ms
Stream size                              : 287 MiB (5%)
Language                                 : English
Service kind                             : Complete Main
 
Menu
ID                                       : 4096 (0x1000)
Menu ID                                  : 1 (0x1)
Duration                                 : 1 h 29 min
List                                     : 256 (0x100) (AVC) / 257 (0x101) (AC-3, English)
Language                                 :  / English
Service name                             : CCTV6
Service provider                         : BGCTV
Service type                             : user defined
剧情简介:
 三名中国商人在俄罗斯被杀害。雷霄等人发现新世纪夜总会老板杜元海有杀人嫌疑。不料,杜却在这时候死了。在中俄警方的努力下,抓获了杀害中国商人的罪犯。策划杀害杜元海的真凶亦浮出水面,竟然是杜元海的妻子。

 下载地址:
 http://pan.baidu.com/s/1b2wWcm
yixiqiao
精灵王
精灵王
  • 注册日期2016-04-13
  • 发帖数791
  • 影币1632枚
  • 魔力值390点
  • 蓝光币0克拉
  • 社区居民
  • 最爱沙发
  • 忠实会员
  • 原创写手
  • 追星一族
沙发#
发布于:2017-05-17 15:04
很棒的录制版 谢谢了
sh818
圣骑士
圣骑士
  • 注册日期2016-06-09
  • 发帖数360
  • 影币358枚
  • 魔力值548点
  • 蓝光币0克拉
板凳#
发布于:2017-05-17 22:41
感谢分享
lly1971
精灵王
精灵王
  • 注册日期2015-08-06
  • 发帖数2899
  • 影币3157枚
  • 魔力值1274点
  • 蓝光币0克拉
  • 社区居民
  • 最爱沙发
  • 忠实会员
地板#
发布于:2017-05-18 12:25
感谢分享!
xiaoluo_008
骑士
骑士
  • 注册日期2016-04-28
  • 发帖数77
  • 影币11枚
  • 魔力值309点
  • 蓝光币0克拉
4楼#
发布于:2017-05-20 14:52
看起来有点低档啊.............
beyondhing99
侠客
侠客
  • 注册日期2015-09-28
  • 发帖数229
  • 影币1枚
  • 魔力值43点
  • 蓝光币0克拉
5楼#
发布于:2017-05-21 23:26
ssssssssssssssssssssssssssss
游客
返回顶部