gananicus
管理员
管理员
  • 注册日期2015-07-28
  • 发帖数595
  • 影币17545枚
  • 魔力值509点
  • 蓝光币0克拉
  • 社区居民
阅读:4899回复:218

[动作]速度与激情8【韩版】The.Fate.of.the.Furious.2017.1080p.HDRip.x264.AAC2.0-STU 4.64GB

楼主#
更多 发布于:2017-05-17 22:46


◎译  名 速度与激情8/狂野时速8(港)/玩命关头8(台)/速激8/速8/速度8
◎片  名 The Fate of the Furious
◎年  代 2017
◎产  地 美国
◎类  别 动作/犯罪
◎语  言 英语
◎上映日期 2017-04-12(法国)/2017-04-14(美国)/2017-04-14(中国大陆)
◎IMDb评分  7.2/10 from 70,064 users
◎IMDb链接  http://www.imdb.com/title/tt4630562/
◎豆瓣评分 7.2/10 from 133,784 users
◎豆瓣链接 https://movie.douban.com/subject/26260853/
◎BT之家整理 http://www.btbtt.co
◎片  长 136分钟
◎导  演 F·加里·格雷 F. Gary Gray
◎主  演 范·迪塞尔 Vin Diesel
道恩·强森 Dwayne Johnson
查理兹·塞隆 Charlize Theron
杰森·斯坦森 Jason Statham
米歇尔·罗德里格兹 Michelle Rodriguez
泰瑞斯·吉布森 Tyrese Gibson
卢达克里斯 Ludacris
库尔特·拉塞尔 Kurt Russell
娜塔莉·伊曼纽尔 Nathalie Emmanuel
卢克·伊万斯 Luke Evans
埃尔莎·帕塔奇 Elsa Pataky
克里斯托弗·海维尤 Kristofer Hivju
斯科特·伊斯特伍德 Scott Eastwood
帕特里克·圣埃斯普利特 Patrick St. Esprit


◎简  介


多米尼克(范·迪塞尔 Vin Diesel 饰)与莱蒂(米歇尔·罗德里格兹 Michelle Rodriguez 饰)共度蜜月,布莱恩与米娅退出了赛车界,这支曾环游世界的顶级飞车家族队伍的生活正渐趋平淡。然而,一位神秘女子Cipher(查理兹·塞隆 Charlize T heron 饰)的出现,令整个队伍卷入信任与背叛的危机,面临前所未有的考验。


Video
ID                                       : 1
Format                                   : AVC
Format/Info                              : Advanced Video Codec
Format profile                           : High@L4.1
Format settings, CABAC                   : Yes
Format settings, ReFrames                : 4 frames
Codec ID                                 : avc1
Codec ID/Info                            : Advanced Video Coding
Duration                                 : 2h 15mn
Bit rate                                 : 4 700 Kbps
Width                                    : 1 920 pixels
Height                                   : 800 pixels
Display aspect ratio                     : 2.40:1
Frame rate mode                          : Constant
Frame rate                               : 30.303 fps
Color space                              : YUV
Chroma subsampling                       : 4:2:0
Bit depth                                : 8 bits
Scan type                                : Progressive
Bits/(Pixel*Frame)                       : 0.101
Stream size                              : 4.41 GiB (95%)
Title                                    : The.Fate.of.the.Furious.2017.1080p.KORSUB.HDRip.x264.AAC2.0-STUTTERSHIT
Writing library                          : x264 core 142 r2479 dd79a61
Encoding settings                        : cabac=1 / ref=1 / deblock=1:0:0 / analyse=0x3:0x113 / me=hex / subme=2 / psy=1 / psy_rd=1.00:0.00 / mixed_ref=0 / me_range=16 / chroma_me=1 / trellis=0 / 8x8dct=1 / cqm=0 / deadzone=21,11 / fast_pskip=1 / chroma_qp_offset=0 / threads=12 / lookahead_threads=4 / sliced_threads=0 / nr=0 / decimate=1 / interlaced=0 / bluray_compat=0 / constrained_intra=0 / bframes=3 / b_pyramid=2 / b_adapt=1 / b_bias=0 / direct=1 / weightb=1 / open_gop=0 / weightp=1 / keyint=300 / keyint_min=30 / scenecut=40 / intra_refresh=0 / rc_lookahead=10 / rc=abr / mbtree=1 / bitrate=4700 / ratetol=1.0 / qcomp=0.60 / qpmin=0 / qpmax=69 / qpstep=4 / vbv_maxrate=62500 / vbv_bufsize=78125 / nal_hrd=none / filler=0 / ip_ratio=1.40 / aq=1:1.00
Color range                              : Limited
Color primaries                          : BT.709
Transfer characteristics                 : BT.709
Matrix coefficients                      : BT.709


Audio
ID                                       : 2
Format                                   : AAC
Format/Info                              : Advanced Audio Codec
Format profile                           : LC
Codec ID                                 : 40
Duration                                 : 2h 15mn
Bit rate mode                            : Constant
Bit rate                                 : 224 Kbps
Channel(s)                               : 2 channels
Channel positions                        : Front: L R
Sampling rate                            : 48.0 KHz
Frame rate                               : 46.875 fps (1024 spf)
Compression mode                         : Lossy
Stream size                              : 218 MiB (5%)
Title                                    : The.Fate.of.the.Furious.2017.1080p.KORSUB.HDRip.x264.AAC2.0-STUTTERSHIT
Default                                  : Yes
Alternate group                          : 1

附件名称/大小 下载次数 最后更新
The.Fate.of.the.Furious.2017.1080p.KORSUB.HDRip.x264.AAC2.0-STUTTERSHIT.torrent (94KB)  875 05-17 22:46
The.Fate.of.the.Furious.2017.1080p.HC.HDRip.X264.AC3-EVO[PRiME].torrent (185KB)  475 05-17 22:46
realize
圣骑士
圣骑士
  • 注册日期2016-09-22
  • 发帖数277
  • 影币2枚
  • 魔力值648点
  • 蓝光币0克拉
  • 社区居民
  • 忠实会员
沙发#
发布于:2017-05-17 22:55
非常谢谢~
lampc123
圣骑士
圣骑士
  • 注册日期2016-11-30
  • 发帖数292
  • 影币71枚
  • 魔力值499点
  • 蓝光币0克拉
  • 忠实会员
板凳#
发布于:2017-05-17 23:17
谢谢楼主的分享
zuihong
圣骑士
圣骑士
  • 注册日期2015-10-01
  • 发帖数173
  • 影币13枚
  • 魔力值674点
  • 蓝光币0克拉
  • 社区居民
  • 忠实会员
地板#
发布于:2017-05-17 23:24
谢谢及时分享
cphman
精灵王
精灵王
  • 注册日期2016-01-30
  • 发帖数687
  • 影币507枚
  • 魔力值1058点
  • 蓝光币0克拉
4楼#
发布于:2017-05-17 23:41
谢谢楼主!
文攻武斗
精灵王
精灵王
  • 注册日期2016-01-02
  • 发帖数90
  • 影币0枚
  • 魔力值1003点
  • 蓝光币0克拉
5楼#
发布于:2017-05-17 23:48
能 下载吗?
deanleocn
新手
新手
  • 注册日期2017-02-21
  • 发帖数18
  • 影币20枚
  • 魔力值76点
  • 蓝光币0克拉
6楼#
发布于:2017-05-17 23:53
感谢分享~~
snake
精灵王
精灵王
  • 注册日期2015-07-28
  • 发帖数486
  • 影币11610枚
  • 魔力值2200点
  • 蓝光币0克拉
  • 社区居民
  • 忠实会员
  • 喜欢达人
7楼#
发布于:2017-05-18 00:12
韩版啊,那我再等等
xiaoluo_008
骑士
骑士
  • 注册日期2016-04-28
  • 发帖数79
  • 影币13枚
  • 魔力值337点
  • 蓝光币0克拉
8楼#
发布于:2017-05-18 00:17
看看...............
duotou5594
精灵王
精灵王
  • 注册日期2015-07-28
  • 发帖数1117
  • 影币3129枚
  • 魔力值1649点
  • 蓝光币0克拉
  • 社区居民
  • 最爱沙发
  • 忠实会员
9楼#
发布于:2017-05-18 00:17
谢谢楼主的分享
有字幕吗?
xiaoluo_008
骑士
骑士
  • 注册日期2016-04-28
  • 发帖数79
  • 影币13枚
  • 魔力值337点
  • 蓝光币0克拉
10楼#
发布于:2017-05-18 00:17
好看吗................
kinglxq2
侠客
侠客
  • 注册日期2016-08-07
  • 发帖数56
  • 影币2枚
  • 魔力值242点
  • 蓝光币0克拉
  • 社区居民
11楼#
发布于:2017-05-18 00:21
看看~~~~~~~~~~
kinglxq2
侠客
侠客
  • 注册日期2016-08-07
  • 发帖数56
  • 影币2枚
  • 魔力值242点
  • 蓝光币0克拉
  • 社区居民
12楼#
发布于:2017-05-18 00:21
谢谢分享~~~~~~~~~~~~~~~
xehulang
精灵王
精灵王
  • 注册日期2015-07-30
  • 发帖数44
  • 影币3枚
  • 魔力值1291点
  • 蓝光币0克拉
  • 社区居民
13楼#
发布于:2017-05-18 00:30
看来高清已经不远了。
471939495
侠客
侠客
  • 注册日期2017-04-19
  • 发帖数13
  • 影币8枚
  • 魔力值103点
  • 蓝光币0克拉
  • 社区居民
14楼#
发布于:2017-05-18 00:40
影币怎么搞?
上一页
游客
返回顶部