sww
sww
论坛版主
论坛版主
  • 注册日期2015-12-13
  • 发帖数1054
  • 影币20699枚
  • 魔力值1094点
  • 蓝光币0克拉
  • 社区居民
  • 最爱沙发
  • 忠实会员
  • 喜欢达人
  • 原创写手
阅读:905回复:27

[动画]宝贝老板 (外挂港版官方简繁字幕) The.Boss.Baby.2017.1080p.WEB-DL.DD5.1.H264-FGT 3.33 GB

楼主#
更多 发布于:2017-05-19 09:50




◎译  名 宝贝老板/娃娃老板/波士BB(港)
◎片  名 The Boss Baby
◎年  代 2017
◎产  地 美国
◎类  别 喜剧/动画
◎语  言 英语
◎上映日期 2017-03-12(迈阿密电影节)/2017-03-31(美国)
◎IMDb评分 6.5/10 from 16,449 users
◎IMDb链接 http://www.imdb.com/title/tt3874544/
◎豆瓣评分 7.6/10 from 1,476 users
◎豆瓣链接 https://movie.douban.com/subject/25907029/
◎片  长 97分钟
◎导  演 汤姆·麦格拉思 Tom McGrath
◎主  演 亚历克·鲍德温 Alec Baldwin
史蒂夫·布西密 Steve Buscemi
吉米·坎摩尔 Jimmy Kimmel
丽莎·库卓 Lisa Kudrow
托比·马奎尔 Tobey Maguire
迈尔斯·克里斯托弗·巴克什 Miles Christopher Bakshi
詹姆斯·麦格拉思 James McGrath
康拉德·弗农 Conrad Vernon
薇薇安·叶 ViviAnn Yee
埃里克·贝尔·Jr. Eric Bell Jr.
大卫·索伦 David Soren
伊迪·米尔曼 Edie Mirman
詹姆斯·雷恩 James Ryan
沃尔特·道恩 Walt Dohrn
朱尔斯·温特 Jules Winter
◎简  介
现在的孩子都是家里的小皇帝、小公主,生了孩子后一家人的生活重心彻底改变,大人们都要围着孩子转。有感于此,梦工厂导演Tom McGrath构思了这部《娃娃老板》,不过他脑洞更大,在片中,这些咿咿呀呀、满地乱爬的小娃娃一个个成为心机很深的阴谋家!
亚历克·鲍德温(Alec Baldwin)在《娃娃老板》里为主角婴儿Timothy Templeton配音,当家中迎来弟弟后,他一下子就失宠了,爸爸妈妈的心思全都在弟弟身上,这让他很不爽。
不过更加让他震惊的是,看似人畜无害的弟弟原来是一家叫做Puppy公司的经理,这家公司正密谋颠覆世界。Timothy必须和“弟弟”联起手来,才能拯救他们的父母、阻止这一阴谋。



MediaInfo
 Video
 ID                                       : 1
 Format                                   : AVC
 Format/Info                              : Advanced Video Codec
 Format profile                           : High@L4
 Format settings, CABAC                   : Yes
 Format settings, ReFrames                : 5 frames
 Codec ID                                 : V_MPEG4/ISO/AVC
 Duration                                 : 1h 37mn
 Bit rate                                 : 4 395 Kbps
 Width                                    : 1 916 pixels
 Height                                   : 812 pixels
 Display aspect ratio                     : 2.35:1
 Frame rate mode                          : Constant
 Frame rate                               : 23.976 (24000/1001) fps
 Color space                              : YUV
 Chroma subsampling                       : 4:2:0
 Bit depth                                : 8 bits
 Scan type                                : Progressive
 Bits/(Pixel*Frame)                       : 0.118
 Stream size                              : 3.00 GiB (90%)
 Title                                    : The.Boss.Baby.2017.1080p.WEB-DL.DD5.1.H264-FGT
 Language                                 : English
 Default                                  : Yes
 Forced                                   : No
 Color range                              : Limited
 Color primaries                          : BT.709
 Transfer characteristics                 : BT.709
 Matrix coefficients                      : BT.709

 Audio
 ID                                       : 2
 Format                                   : AC-3
 Format/Info                              : Audio Coding 3
 Mode extension                           : CM (complete main)
 Format settings, Endianness              : Big
 Codec ID                                 : A_AC3
 Duration                                 : 1h 37mn
 Bit rate mode                            : Constant
 Bit rate                                 : 384 Kbps
 Channel(s)                               : 6 channels
 Channel positions                        : Front: L C R, Side: L R, LFE
 Sampling rate                            : 48.0 KHz
 Frame rate                               : 31.250 fps (1536 spf)
 Compression mode                         : Lossy
 Stream size                              : 269 MiB (8%)
 Title                                    : The.Boss.Baby.2017.1080p.WEB-DL.DD5.1.H264-FGT
 Language                                 : English
 Default                                  : Yes
 Forced                                   : No

 Text
 ID                                       : 3
 Format                                   : UTF-8
 Codec ID                                 : S_TEXT/UTF8
 Codec ID/Info                            : UTF-8 Plain Text
 Language                                 : English
 Default                                  : Yes
 Forced                                   : No

 Menu
 00:00:00.000                             : en:1
 00:03:44.891                             : en:2
 00:08:57.286                             : en:3
 00:11:44.911                             : en:4
 00:14:58.562                             : en:5
 00:19:37.215                             : en:6
 00:22:51.784                             : en:7
 00:28:26.243                             : en:8
 00:30:25.111                             : en:9
 00:33:44.477                             : en:10
 00:36:56.252                             : en:11
 00:39:17.351                             : en:12
 00:42:34.339                             : en:13
 00:46:19.605                             : en:14
 00:51:36.713                             : en:15
 00:53:24.278                             : en:16
 00:56:27.711                             : en:17
 00:59:34.397                             : en:18
 01:04:02.164                             : en:19
 01:08:14.749                             : en:20
 01:11:28.901                             : en:21
 01:16:24.238                             : en:22
 01:23:09.101                             : en:23
 01:27:35.951                             : en:24

宝贝老板 The.Boss.Baby.2017.1080p.WEB-DL.DD5.1.H264-FGT 3.33G.torrent宝贝老板(港版官方简繁字幕).The.Boss.Baby.2017.1080p.WEB-DL.DD5.1.H264-FGT.rar

最新喜欢:

lageinlagein fanlyfanly
tibetanzhang
侠客
侠客
  • 注册日期2017-04-07
  • 发帖数105
  • 影币122枚
  • 魔力值158点
  • 蓝光币0克拉
  • 社区居民
  • 忠实会员
沙发#
发布于:2017-05-19 10:13
 楼主强大,感谢分享。
yixiqiao
精灵王
精灵王
  • 注册日期2016-04-13
  • 发帖数788
  • 影币1532枚
  • 魔力值344点
  • 蓝光币0克拉
  • 社区居民
  • 最爱沙发
  • 忠实会员
  • 原创写手
  • 追星一族
板凳#
发布于:2017-05-19 10:35
感谢分享宝贝老板
supermanwp
骑士
骑士
  • 注册日期2016-11-21
  • 发帖数96
  • 影币18枚
  • 魔力值313点
  • 蓝光币0克拉
地板#
发布于:2017-05-19 10:35
 楼主强大,感谢分享。
yixiqiao
精灵王
精灵王
  • 注册日期2016-04-13
  • 发帖数788
  • 影币1532枚
  • 魔力值344点
  • 蓝光币0克拉
  • 社区居民
  • 最爱沙发
  • 忠实会员
  • 原创写手
  • 追星一族
4楼#
发布于:2017-05-19 10:35
感谢分享宝贝老板
supermanwp
骑士
骑士
  • 注册日期2016-11-21
  • 发帖数96
  • 影币18枚
  • 魔力值313点
  • 蓝光币0克拉
5楼#
发布于:2017-05-19 10:35
 楼主强大,感谢分享。
sch0771
圣骑士
圣骑士
  • 注册日期2017-03-20
  • 发帖数527
  • 影币472枚
  • 魔力值185点
  • 蓝光币0克拉
  • 社区居民
  • 忠实会员
6楼#
发布于:2017-05-19 11:03
感谢分享。
掌上资源库
新手
新手
  • 注册日期2016-06-22
  • 发帖数8
  • 影币1枚
  • 魔力值44点
  • 蓝光币0克拉
7楼#
发布于:2017-05-19 11:40
掌上资源库
新手
新手
  • 注册日期2016-06-22
  • 发帖数8
  • 影币1枚
  • 魔力值44点
  • 蓝光币0克拉
8楼#
发布于:2017-05-19 11:42
怎么获取种子信息失败
gunxue
骑士
骑士
  • 注册日期2016-12-14
  • 发帖数64
  • 影币2枚
  • 魔力值342点
  • 蓝光币0克拉
9楼#
发布于:2017-05-19 16:08
看来还不错
noply
精灵王
精灵王
  • 注册日期2016-04-23
  • 发帖数234
  • 影币0枚
  • 魔力值1164点
  • 蓝光币0克拉
  • 社区居民
10楼#
发布于:2017-05-19 16:48
 楼主强大,感谢分享。
noply
精灵王
精灵王
  • 注册日期2016-04-23
  • 发帖数234
  • 影币0枚
  • 魔力值1164点
  • 蓝光币0克拉
  • 社区居民
11楼#
发布于:2017-05-19 16:49
感谢分享
noply
精灵王
精灵王
  • 注册日期2016-04-23
  • 发帖数234
  • 影币0枚
  • 魔力值1164点
  • 蓝光币0克拉
  • 社区居民
12楼#
发布于:2017-05-19 16:50
小皇帝、小公主
noply
精灵王
精灵王
  • 注册日期2016-04-23
  • 发帖数234
  • 影币0枚
  • 魔力值1164点
  • 蓝光币0克拉
  • 社区居民
13楼#
发布于:2017-05-19 16:50
咿咿呀呀、满地乱爬
w31689119
骑士
骑士
  • 注册日期2015-08-10
  • 发帖数87
  • 影币1枚
  • 魔力值360点
  • 蓝光币0克拉
  • 社区居民
  • 忠实会员
14楼#
发布于:2017-05-19 17:10
很好,不错,我喜欢!
上一页
游客
返回顶部