gananicus
管理员
管理员
  • 注册日期2015-07-28
  • 发帖数677
  • 影币20275枚
  • 魔力值633点
  • 蓝光币1克拉
  • 社区居民
阅读:1070回复:15

[喜剧]健忘村【国语中字/舒淇 /王千源 /张孝全 /曾志伟主演2017台湾古装奇幻喜剧】The.Village.of.No.Return.2017.720p.BluRay.x264-WiKi 4.37G

楼主#
更多 发布于:2017-05-19 11:02


◎译  名 The
Village of No
Return
◎片  名 健忘村
◎年  代 2017
◎产  地 中国大陆/台湾
◎类  别 剧情/喜剧/奇幻/古装
◎语  言 汉语普通话
◎上映日期 2017-01-28(中国大陆)
◎IMDb评分  6.3/10
from 207 users
◎IMDb链接  http://www.imdb.com/title/tt6461526/
◎豆瓣评分 6.7/10 from
39,845 users
◎豆瓣链接 https://movie.douban.com/subject/26717795/
◎片  长 116分钟
◎导  演 陈玉勋
Yu-Hsun Chen
◎主  演 舒淇 Qi Shu
 王千源 Qianyuan Wang
 张孝全
Hsiao-chuan Chang
 曾志伟 Eric Tsang
 杨祐宁 Tony Yang
 张少怀
Shao-Huai Chang
 许杰辉 Chieh-Hui Hsu
 林美秀 Mei-shiu
Lin
 顾宝明 Bao-ming Gu
 陈竹昇 Chu-sheng Chen
 柯宇纶 Yue-Lin
Ko
 黄健玮 Chien-wei
Huang

◎简  介

 《健忘村》的故事发生在一片世外桃源般的村落里,传说此地风水有帝王之相,石员外(曾志伟
饰)觊觎村中龙脉,企图与土匪联合屠村。有一天,一声惨叫打破了裕旺村的宁静,村民朱大饼意外中毒身亡,大饼的妻子秋蓉(舒淇
饰)成为了最大嫌疑人,这时“天虹真人”田贵(王千源
饰)手持神秘宝器“忘忧”路过村子。据说“忘忧”可以洗去人的记忆,控制人格。从此裕旺村变成了健忘村。荒诞爆笑,阴谋不断,其乐融融的世外桃源背后隐藏着一场血雨腥风。

Video
ID  
                                     : 1
Format                            
      : AVC
Format/Info                              : Advanced Video
Codec
Format profile                           : High@L4.1
Format settings, CABAC                   :
Yes
Format settings, ReFrames                : 12 frames
Codec ID        
                         : V_MPEG4/ISO/AVC
Duration                          
       : 1h 55mn
Bit rate                                 : 4 764
Kbps
Width                                    : 1 280 pixels
Height        
                           : 538 pixels
Display aspect ratio                
    : 2.40:1
Frame rate mode                          : Constant
Frame
rate                               : 24.000 fps
Color space                
             : YUV
Chroma subsampling                       : 4:2:0
Bit
depth                                : 8 bits
Scan type                      
         : Progressive
Bits/(Pixel*Frame)                       :
0.288
Stream size                              : 3.85 GiB (88%)
Writing
library                          : x264 core 129 r2245+704+36 8e61944 tMod+MixAQ
[8-bit@4:2:0 X86_64]
Encoding settings                        : cabac=1 /
ref=12 / deblock=1:-3:-3 / analyse=0x3:0x133 / me=umh / subme=11 / psy=1 /
fade_compensate=0.00 / psy_rd=1.05:0.10 / mixed_ref=1 / me_range=32 /
chroma_me=1 / trellis=2 / 8x8dct=1 / cqm=0 / deadzone=21,11 / fast_pskip=0 /
chroma_qp_offset=-3 / threads=18 / lookahead_threads=3 / sliced_threads=0 / nr=0
/ decimate=0 / interlaced=0 / bluray_compat=0 / constrained_intra=0 / fgo=0 /
bframes=10 / b_pyramid=2 / b_adapt=2 / b_bias=0 / direct=3 / weightb=1 /
open_gop=0 / weightp=2 / keyint=250 / keyint_min=24 / scenecut=40 /
intra_refresh=0 / rc_lookahead=80 / rc=2pass / mbtree=1 / bitrate=4764 /
ratetol=1.0 / qcomp=0.70 / qpmin=0 / qpmax=69 / qpstep=4 / cplxblur=20.0 /
qblur=0.5 / ip_ratio=1.40 / aq=1 / aq-strength=0.85 / aq-sensitivity=10.00 /
aq-ifactor=1.00 / aq-pfactor=1.00 / aq-bfactor=1.00 / aq2=0
Language        
                         : Chinese
Default                                  :
Yes
Forced                                   : No

Audio
ID        
                               : 2
Format                                   :
AC-3
Format/Info                              : Audio Coding 3
Mode
extension                           : CM (complete main)
Format settings,
Endianness              : Big
Codec ID                                 :
A_AC3
Duration                                 : 1h 55mn
Bit rate mode    
                       : Constant
Bit rate                                 :
640 Kbps
Channel(s)                               : 6 channels
Channel
positions                        : Front: L C R, Side: L R, LFE
Sampling
rate                            : 48.0 KHz
Frame rate                      
        : 31.250 fps (1536 spf)
Compression mode                         :
Lossy
Stream size                              : 530 MiB (12%)
Language  
                               : Chinese
Default                            
     : Yes
Forced                                   : No

Text
#1
ID                                       : 3
Format                    
               : UTF-8
Codec ID                                 :
S_TEXT/UTF8
Codec ID/Info                            : UTF-8 Plain
Text
Duration                                 : 1h 47mn
Bit rate          
                      : 40 bps
Count of elements                        :
1876
Stream size                              : 32.2 KiB (0%)
Title        
                            : Simplified
Language                            
    : Chinese
Default                                  : Yes
Forced        
                           : No

Text #2
ID                            
          : 4
Format                                   : UTF-8
Codec ID  
                               : S_TEXT/UTF8
Codec ID/Info                    
        : UTF-8 Plain Text
Duration                                 : 1h
47mn
Bit rate                                 : 40 bps
Count of elements  
                      : 1876
Stream size                              : 32.2
KiB (0%)
Title                                    : Traditional
Language  
                               : Chinese
Default                            
     : No
Forced                                   :
No

Menu
00:00:00.000                             :
en:00:00:00.000
00:08:39.750                             :
en:00:08:39.750
00:17:51.875                             :
en:00:17:51.875
00:30:22.750                             :
en:00:30:22.750
00:40:13.166                             :
en:00:40:13.166
00:48:09.875                             :
en:00:48:09.875
00:54:01.541                             :
en:00:54:01.541
01:01:54.791                             :
en:01:01:54.791
01:10:55.166                             :
en:01:10:55.166
01:19:19.875                             :
en:01:19:19.875
01:26:46.208                             :
en:01:26:46.208
01:36:37.250                             :
en:01:36:37.250

附件名称/大小 下载次数 最后更新
The.Village.of.No.Return.2017.720p.BluRay.x264-WiKi.torrent (89KB)  144 05-19 11:02
yixiqiao
精灵王
精灵王
  • 注册日期2016-04-13
  • 发帖数814
  • 影币1687枚
  • 魔力值482点
  • 蓝光币22克拉
  • 社区居民
  • 最爱沙发
  • 忠实会员
  • 原创写手
  • 追星一族
沙发#
发布于:2017-05-19 12:39
不错的电影 谢谢楼主了
matthewlee1968
新手
新手
  • 注册日期2017-03-08
  • 发帖数8
  • 影币0枚
  • 魔力值66点
  • 蓝光币0克拉
板凳#
发布于:2017-05-19 14:25
看看舒淇;奥德
littlefish12
侠客
侠客
  • 注册日期2017-04-10
  • 发帖数11
  • 影币6枚
  • 魔力值134点
  • 蓝光币0克拉
  • 社区居民
  • 忠实会员
地板#
发布于:2017-05-19 17:33
thanks for share very much。
toot1207
骑士
骑士
  • 注册日期2016-03-19
  • 发帖数75
  • 影币8枚
  • 魔力值338点
  • 蓝光币0克拉
4楼#
发布于:2017-05-19 23:31
very good...............thank you..................................
lorl8047
新手
新手
  • 注册日期2017-02-25
  • 发帖数9
  • 影币4枚
  • 魔力值88点
  • 蓝光币0克拉
5楼#
发布于:2017-05-20 00:57
very good...............thank you..................................
lorl8047
新手
新手
  • 注册日期2017-02-25
  • 发帖数9
  • 影币4枚
  • 魔力值88点
  • 蓝光币0克拉
6楼#
发布于:2017-05-20 00:57
very good...............thank you..................................
o8jingyy8o
骑士
骑士
  • 注册日期2017-01-17
  • 发帖数33
  • 影币27枚
  • 魔力值272点
  • 蓝光币0克拉
  • 社区居民
  • 忠实会员
7楼#
发布于:2017-05-20 10:47
感谢分享~~~~~
var
var
骑士
骑士
  • 注册日期2017-02-10
  • 发帖数70
  • 影币26枚
  • 魔力值234点
  • 蓝光币1克拉
  • 社区居民
  • 忠实会员
8楼#
发布于:2017-05-20 12:07
电影情节很扯,剧情也是
louishk
骑士
骑士
  • 注册日期2016-10-21
  • 发帖数246
  • 影币166枚
  • 魔力值266点
  • 蓝光币2克拉
  • 社区居民
  • 忠实会员
9楼#
发布于:2017-05-20 19:34
感谢楼主分享
fengdigger
侠客
侠客
  • 注册日期2016-12-20
  • 发帖数72
  • 影币27枚
  • 魔力值190点
  • 蓝光币1克拉
10楼#
发布于:2017-05-20 20:20
 附件名称/大小
jackyz
骑士
骑士
  • 注册日期2016-01-25
  • 发帖数15
  • 影币18枚
  • 魔力值302点
  • 蓝光币0克拉
  • 社区居民
  • 忠实会员
11楼#
发布于:2017-05-20 21:47
多谢楼主发布
tony551688
圣骑士
圣骑士
  • 注册日期2016-04-19
  • 发帖数97
  • 影币15枚
  • 魔力值561点
  • 蓝光币12克拉
  • 社区居民
  • 忠实会员
12楼#
发布于:2017-05-22 00:40
感謝提供,謝謝
rubebb
侠客
侠客
  • 注册日期2017-01-14
  • 发帖数43
  • 影币0枚
  • 魔力值104点
  • 蓝光币0克拉
13楼#
发布于:2017-05-22 08:57
感謝提供`
jpld
骑士
骑士
  • 注册日期2016-11-30
  • 发帖数71
  • 影币0枚
  • 魔力值398点
  • 蓝光币2克拉
  • 社区居民
14楼#
发布于:2017-05-24 07:58
谢谢分享
上一页
游客
返回顶部