gananicus
管理员
管理员
  • 注册日期2015-07-28
  • 发帖数595
  • 影币17545枚
  • 魔力值509点
  • 蓝光币0克拉
  • 社区居民
阅读:6026回复:209

[科幻]末日重启/杀戮开关【丹·史蒂文斯 /查丽蒂·维克菲尔德主演荷兰/德国/美国合拍2017科幻动作大片】Kill.Switch.2017.1080p.WEB-DL.DD5.1.H264-FGT 3.13GB

楼主#
更多 发布于:2017-05-19 12:59



◎译  名 末日重启/杀戮开关
◎片  名 Kill
Switch
◎年  代 2017
◎产  地 荷兰/德国/美国
◎类  别 动作/科幻
◎语  言 英语
◎上映日期 2017-06-16(美国)/2017-07(中国大陆)
◎IMDb评分  7.1/10
from 11 users
◎IMDb链接  http://www.imdb.com/title/tt5464234/
◎片  长 91分钟
◎导  演 提姆·斯密特
Tim Smit
◎主  演 丹·史蒂文斯 Dan Stevens
 查丽蒂·维克菲尔德 Charity
Wakefield
 贝纳尼丝·玛尔洛 Bérénice Marlohe
 泰格·格南德特 Tygo
Gernandt
 吉斯·舒尔腾·范·艾查特 Gijs Scholten van Aschat
 Chloe-May
Cuthill
 Don Alphonso
 Bas Keijzer
 Mike
Libanon
 Mike
Reus

◎简  介

 近未来,奥特普能源公司研发出一种利用平行宇宙获取新能源的方法,并盛情邀请飞行员兼物理学家威廉·波特(丹·史蒂文斯
Dan Stevens
饰)协助。因为要照顾身为单亲妈妈的妹妹米娅和患有心理疾病的侄子东尼,威廉婉拒了奥特普的邀请,后抱着强烈的使命感和好奇心,决定投身新计划。不料,就在威廉穿越至另一个宇宙时,系统不稳定导致宇宙即将坍塌。面对机甲和反叛组织的追逐,威廉必须拼尽全力,为了保护心爱的家人和真实宇宙,尽快解决如同末日来临般的大危机。

Video
ID  
                                     : 1
Format                            
      : AVC
Format/Info                              : Advanced Video
Codec
Format profile                           : High@L4
Format settings,
CABAC                   : Yes
Format settings, ReFrames                : 5
frames
Codec ID                                 :
V_MPEG4/ISO/AVC
Duration                                 : 1h 31mn
Bit
rate                                 : 4 433 Kbps
Width                      
             : 1 904 pixels
Height                                   : 792
pixels
Display aspect ratio                     : 2.40:1
Frame rate mode  
                        : Constant
Frame rate                               :
23.976 (24000/1001) fps
Color space                              :
YUV
Chroma subsampling                       : 4:2:0
Bit depth          
                     : 8 bits
Scan type                                :
Progressive
Bits/(Pixel*Frame)                       : 0.123
Stream size  
                            : 2.83 GiB (90%)
Title                          
          : Kill.Switch.2017.1080p.WEB-DL.DD5.1.H264-FGT
Language          
                      : English
Default                                  :
Yes
Forced                                   : No
Color range              
                : Limited
Color primaries                          :
BT.709
Transfer characteristics                 : BT.709
Matrix
coefficients                      : BT.709

Audio
ID                    
                   : 2
Format                                   :
AC-3
Format/Info                              : Audio Coding 3
Mode
extension                           : CM (complete main)
Format settings,
Endianness              : Big
Codec ID                                 :
A_AC3
Duration                                 : 1h 31mn
Bit rate mode    
                       : Constant
Bit rate                                 :
384 Kbps
Channel(s)                               : 6 channels
Channel
positions                        : Front: L C R, Side: L R, LFE
Sampling
rate                            : 48.0 KHz
Frame rate                      
        : 31.250 fps (1536 spf)
Compression mode                         :
Lossy
Stream size                              : 251 MiB (8%)
Title        
                            :
Kill.Switch.2017.1080p.WEB-DL.DD5.1.H264-FGT
Language                      
          : English
Default                                  : Yes
Forced  
                                 : No

Text
ID                          
             : 3
Format                                   : UTF-8
Codec
ID                                 : S_TEXT/UTF8
Codec ID/Info              
              : UTF-8 Plain Text
Language                                 :
English
Default                                  : Yes
Forced              
                     : No

Menu
00:00:00.000                          
   : en:Opening Sequence
00:05:37.000                             : en:Echo
Damage Report
00:11:20.000                             : en:In The
Dark
00:17:19.000                             : en:Gravitational
Portal
00:23:50.000                             : en:Restricted
Area
00:29:28.000                             : en:Greatest Challenge
Yet
00:36:45.000                             : en:Homesick
00:41:01.000  
                           : en:They Evacuated
00:47:10.000                
            : en:Back Me Up
00:53:24.000                             :
en:It\'s This Whole Place
00:58:09.000                             : en:Give
Me The Box
01:04:22.000                             : enon\'t
Go
01:09:03.000                             : enon\'t Trust
Him
01:15:02.000                             : en:Where\'s The
Box?
01:21:13.000                             : en:A Big
Responsibility
01:27:27.000                             : en:End
Credits

附件名称/大小 下载次数 最后更新
Kill.Switch.2017.1080p.WEB-DL.DD5.1.H264-FGT.torrent (64KB)  1040 05-19 12:59
gunxue
骑士
骑士
  • 注册日期2016-12-14
  • 发帖数80
  • 影币1枚
  • 魔力值413点
  • 蓝光币0克拉
沙发#
发布于:2017-05-19 13:01
哇,这个貌似不错。看看。有没有中文字幕
kvwowv
新手
新手
  • 注册日期2017-05-12
  • 发帖数9
  • 影币7枚
  • 魔力值30点
  • 蓝光币0克拉
板凳#
发布于:2017-05-19 13:12
看起来很好看
89565261
新手
新手
  • 注册日期2017-04-05
  • 发帖数4
  • 影币6枚
  • 魔力值16点
  • 蓝光币0克拉
  • 社区居民
地板#
发布于:2017-05-19 13:15
有中文字幕不?
zuihong
圣骑士
圣骑士
  • 注册日期2015-10-01
  • 发帖数173
  • 影币13枚
  • 魔力值674点
  • 蓝光币0克拉
  • 社区居民
  • 忠实会员
4楼#
发布于:2017-05-19 13:45
预告片看起来不错!
samhr
圣骑士
圣骑士
  • 注册日期2015-09-08
  • 发帖数109
  • 影币1枚
  • 魔力值736点
  • 蓝光币0克拉
5楼#
发布于:2017-05-19 13:46
感谢分享。。。。。。。。。
qjian919
侠客
侠客
  • 注册日期2017-05-06
  • 发帖数15
  • 影币102枚
  • 魔力值114点
  • 蓝光币0克拉
  • 社区居民
6楼#
发布于:2017-05-19 14:07
看截图不错哦!
lg23895
圣骑士
圣骑士
  • 注册日期2015-09-13
  • 发帖数151
  • 影币26枚
  • 魔力值568点
  • 蓝光币0克拉
  • 社区居民
  • 忠实会员
7楼#
发布于:2017-05-19 14:08
还没上映的好货~
sweetestsad
骑士
骑士
  • 注册日期2016-06-23
  • 发帖数61
  • 影币36枚
  • 魔力值272点
  • 蓝光币0克拉
  • 社区居民
  • 忠实会员
8楼#
发布于:2017-05-19 14:52
好看不,有字幕呢
liaokenny
圣骑士
圣骑士
  • 注册日期2016-02-14
  • 发帖数102
  • 影币15枚
  • 魔力值807点
  • 蓝光币0克拉
9楼#
发布于:2017-05-19 14:59
果断下载了。
Garry
骑士
骑士
  • 注册日期2017-02-16
  • 发帖数160
  • 影币138枚
  • 魔力值222点
  • 蓝光币0克拉
  • 社区居民
  • 忠实会员
10楼#
发布于:2017-05-19 15:04
看剧情简介还不错
me123
骑士
骑士
  • 注册日期2016-12-27
  • 发帖数128
  • 影币45枚
  • 魔力值397点
  • 蓝光币0克拉
  • 社区居民
  • 忠实会员
11楼#
发布于:2017-05-19 15:57
我要看  谢谢楼主
daniel63
圣骑士
圣骑士
  • 注册日期2015-09-18
  • 发帖数186
  • 影币77枚
  • 魔力值557点
  • 蓝光币0克拉
12楼#
发布于:2017-05-19 16:03
看看不错吧
sch0771
圣骑士
圣骑士
  • 注册日期2017-03-20
  • 发帖数528
  • 影币472枚
  • 魔力值209点
  • 蓝光币0克拉
  • 社区居民
  • 忠实会员
13楼#
发布于:2017-05-19 16:28
感谢分享。
alone
侠客
侠客
  • 注册日期2016-07-18
  • 发帖数56
  • 影币54枚
  • 魔力值218点
  • 蓝光币0克拉
  • 社区居民
  • 忠实会员
14楼#
发布于:2017-05-19 16:32
感谢楼主分享,看上去不错
上一页
游客
返回顶部