gananicus
管理员
管理员
  • 注册日期2015-07-28
  • 发帖数674
  • 影币20140枚
  • 魔力值629点
  • 蓝光币1克拉
  • 社区居民
阅读:1624回复:27

[动作]偷天换日之重生/面纱.The.Veil.2017.1080p.BluRay.x264.DTS-FGT 7.62GB

楼主#
更多 发布于:2017-06-02 14:46


◎译  名 偷天换日之重生/面纱
◎片  名 The
Veil
◎年  代 2015
◎产  地 美国
◎类  别 动作
◎语  言 英语
◎导  演 Brent Ryan
Green
◎主  演 赛琳达·斯万 Serinda Swan
 威廉·莫斯里 William
Moseley
 托马斯·简 Thomas Jane
 威廉·莱维 William Levy
 尼克·塔拉贝
Nick Tarabay
 比利·布莱尔 Billy Blair
 布雷特·德尔布罗诺 Brett
DelBuono
 Torrey Vogel

◎简  介

 Set in a war-torn land
where tribal factions live in fear of annihilation, the film tells the story of
a deadly warrior leading a destructive war campaign. When he is betrayed by his
own and left for dead, he is healed by a mysterious princess and taken in by a
hidden tribe that believes he was chosen to wage a final battle.
Video
ID  
                                     : 1
Format                            
      : AVC
Format/Info                              : Advanced Video
Codec
Format profile                           : High@L4.1
Format settings, CABAC                   :
Yes
Format settings, ReFrames                : 4 frames
Codec ID          
                      : V_MPEG4/ISO/AVC
Duration                            
    : 1h 26mn
Bit rate                                 : 10.9 Mbps
Nominal
bit rate                         : 11.5 Mbps
Width                          
          : 1 920 pixels
Height                                   : 796
pixels
Display aspect ratio                     : 2.40:1
Frame rate mode  
                        : Constant
Frame rate                               :
23.976 (24000/1001) fps
Color space                              :
YUV
Chroma subsampling                       : 4:2:0
Bit depth          
                     : 8 bits
Scan type                                :
Progressive
Bits/(Pixel*Frame)                       : 0.298
Stream size  
                            : 6.56 GiB (86%)
Title                          
          : The.Veil.2017.1080p.BluRay.x264.DTS-FGT
Writing library          
               : x264 core 148 r2694 3b70645
Encoding settings              
          : cabac=1 / ref=4 / deblock=1:-2:-2 / analyse=0x3:0x113 / me=umh /
subme=7 / psy=1 / psy_rd=1.00:0.15 / mixed_ref=1 / me_range=16 / chroma_me=1 /
trellis=1 / 8x8dct=1 / cqm=0 / deadzone=21,11 / fast_pskip=1 /
chroma_qp_offset=-3 / threads=24 / lookahead_threads=3 / sliced_threads=0 / nr=0
/ decimate=1 / interlaced=0 / bluray_compat=0 / constrained_intra=0 / bframes=3
/ b_pyramid=2 / b_adapt=2 / b_bias=0 / direct=3 / weightb=1 / open_gop=0 /
weightp=2 / keyint=250 / keyint_min=25 / scenecut=40 / intra_refresh=0 /
rc_lookahead=50 / rc=abr / mbtree=1 / bitrate=11500 / ratetol=1.0 / qcomp=0.60 /
qpmin=0 / qpmax=69 / qpstep=4 / vbv_maxrate=31250 / vbv_bufsize=31250 /
nal_hrd=none / filler=0 / ip_ratio=1.40 / aq=1:1.00
Language                
                : English
Default                                  :
Yes
Forced                                   : No

Audio
ID        
                               : 2
Format                                   :
DTS
Format/Info                              : Digital Theater
Systems
Mode                                     : 16
Format settings,
Endianness              : Big
Codec ID                                 :
A_DTS
Duration                                 : 1h 26mn
Bit rate mode    
                       : Constant
Bit rate                                 :
1 509 Kbps
Channel(s)                               : 6 channels
Channel
positions                        : Front: L C R, Side: L R, LFE
Sampling
rate                            : 48.0 KHz
Frame rate                      
        : 93.750 fps (512 spf)
Bit depth                                : 24
bits
Compression mode                         : Lossy
Stream size        
                      : 928 MiB (12%)
Title                                  
 : The.Veil.2017.1080p.BluRay.x264.DTS-FGT
Language                          
       : English
Default                                  : Yes
Forced    
                              : No

Menu
00:00:00.000                
            : en:Chapter 01
00:09:33.573                             :
en:Chapter 02
00:19:08.981                             : en:Chapter
03
00:28:42.011                             : en:Chapter 04
00:38:53.706  
                           : en:Chapter 05
00:50:18.140                      
      : en:Chapter 06
00:59:55.425                             : en:Chapter
07
01:11:11.558                             : en:Chapter 08
01:20:52.222  
                           : en:Chapter 09

附件名称/大小 下载次数 最后更新
The.Veil.2017.1080p.BluRay.x264.DTS-FGT.torrent (77KB)  77 06-02 14:45

最新喜欢:

leejiantaoleejia...
鬼火3773
骑士
骑士
  • 注册日期2016-10-21
  • 发帖数60
  • 影币1枚
  • 魔力值454点
  • 蓝光币0克拉
  • 社区居民
  • 忠实会员
沙发#
发布于:2017-06-02 15:17
要英文简介啊,看不懂哦
rbkid
骑士
骑士
  • 注册日期2016-11-17
  • 发帖数107
  • 影币13枚
  • 魔力值258点
  • 蓝光币0克拉
板凳#
发布于:2017-06-02 15:50
这是两兄弟吗,看演员名字时的第一反应,几秒钟后才反应过来
frednik
精灵王
精灵王
  • 注册日期2016-05-23
  • 发帖数127
  • 影币2枚
  • 魔力值918点
  • 蓝光币0克拉
地板#
发布于:2017-06-02 18:27
哎。。生化7里面哪位配角啊,,,戏份好少。。还没看清就已经便当,不过蛮帅的。
frednik
精灵王
精灵王
  • 注册日期2016-05-23
  • 发帖数127
  • 影币2枚
  • 魔力值918点
  • 蓝光币0克拉
4楼#
发布于:2017-06-02 18:28
海报有点好看。
zshamo
骑士
骑士
  • 注册日期2016-09-11
  • 发帖数94
  • 影币5枚
  • 魔力值352点
  • 蓝光币7克拉
  • 社区居民
  • 忠实会员
5楼#
发布于:2017-06-02 19:07
谢谢 分享
realize
精灵王
精灵王
  • 注册日期2016-09-22
  • 发帖数299
  • 影币1枚
  • 魔力值752点
  • 蓝光币0克拉
  • 社区居民
  • 忠实会员
6楼#
发布于:2017-06-02 19:38
感谢分享
赌徒信者
侠客
侠客
  • 注册日期2016-10-11
  • 发帖数23
  • 影币0枚
  • 魔力值125点
  • 蓝光币0克拉
7楼#
发布于:2017-06-02 21:36
回答一下啊
douglas
精灵王
精灵王
  • 注册日期2015-08-06
  • 发帖数655
  • 影币0枚
  • 魔力值875点
  • 蓝光币0克拉
  • 忠实会员
8楼#
发布于:2017-06-02 22:26
多谢分享 ^^
douglas
精灵王
精灵王
  • 注册日期2015-08-06
  • 发帖数655
  • 影币0枚
  • 魔力值875点
  • 蓝光币0克拉
  • 忠实会员
9楼#
发布于:2017-06-02 22:26
多谢分享
huajing100
侠客
侠客
  • 注册日期2016-12-10
  • 发帖数92
  • 影币2枚
  • 魔力值136点
  • 蓝光币5克拉
  • 社区居民
10楼#
发布于:2017-06-03 06:44
谢谢分享!
jclovehome
圣骑士
圣骑士
  • 注册日期2016-12-23
  • 发帖数387
  • 影币250枚
  • 魔力值370点
  • 蓝光币0克拉
  • 社区居民
  • 忠实会员
11楼#
发布于:2017-06-03 09:16
谢谢分享了
supermanwp
骑士
骑士
  • 注册日期2016-11-21
  • 发帖数99
  • 影币13枚
  • 魔力值343点
  • 蓝光币0克拉
12楼#
发布于:2017-06-03 10:11
谢谢楼主分享。
haiming8418
精灵王
精灵王
  • 注册日期2015-07-29
  • 发帖数1072
  • 影币1007枚
  • 魔力值1616点
  • 蓝光币1克拉
  • 忠实会员
13楼#
发布于:2017-06-03 14:15
谢谢楼主分享
leejiantao
侠客
侠客
  • 注册日期2016-09-20
  • 发帖数68
  • 影币0枚
  • 魔力值231点
  • 蓝光币2克拉
  • 社区居民
  • 忠实会员
14楼#
发布于:2017-06-04 19:02
谢谢楼主分享
上一页
游客
返回顶部