gananicus
管理员
管理员
  • 注册日期2015-07-28
  • 发帖数674
  • 影币20140枚
  • 魔力值629点
  • 蓝光币1克拉
  • 社区居民
阅读:2340回复:24

[恐怖]魅惑/魅惑人鱼姬 The.Lure.2015.SUBBED.1080p.WEB-DL.DD5.1.H264-FGT 3.2GB

楼主#
更多 发布于:2017-06-05 15:39


◎译  名 魅惑/魅惑人鱼姬(台)/人鱼诱惑/诱惑
◎片  名 Córki
dancingu
◎年  代 2015
◎产  地 波兰
◎类  别 剧情/喜剧/歌舞
◎语  言 波兰语
◎上映日期 2015-12-25(波兰)
◎IMDb评分  6.5/10
from 1,135 users
◎IMDb链接  http://www.imdb.com/title/tt5278832/
◎豆瓣评分 6.1/10 from 205
users
◎豆瓣链接 https://movie.douban.com/subject/26679181/
◎片  长 92分钟
◎导  演 Agnieszka
Smoczynska
◎主  演 Marta Mazurek
 Michalina Olszańska
 金嘉·普雷斯
Kinga Preis
 Andrzej Konopka
 雅酷朴·盖尔秀 Jakub
Gierszal

◎简  介

 華沙的夜店家族在岸邊遇見一對媚豔曼妙的美人魚姊妹,自此她們成為表演裡最轟動的巨星。霓光爛熳,醉人也醉魚,她們不惜一切只為變成人,妹妹甚至愛上俊俏貝斯手,然而卻無法抑止自己嗜血的本性。波蘭新銳女導演以歌舞片形式翻拍童話寓言,驚悚、怪誕、華麗、敢曝,如《搖滾芭比》卻又展新意。在慾樂潮平後,汨汨滲出的泡沫是不顧一切的、最真摯的愛。

◎获奖情况

 第32届圣丹斯电影节  (2016)
 评审团大奖
世界电影单元剧情片(提名)


Video
ID                                       :
1
Format                                   : AVC
Format/Info              
                : Advanced Video Codec
Format profile                      
    : High@L4
Format settings, CABAC                   : Yes
Format
settings, ReFrames                : 5 frames
Codec ID                      
          : V_MPEG4/ISO/AVC
Duration                                 : 1h
32mn
Bit rate                                 : 4 530 Kbps
Width          
                         : 1 920 pixels
Height                                
   : 798 pixels
Display aspect ratio                     : 2.40:1
Frame
rate mode                          : Constant
Frame rate                    
           : 23.976 (24000/1001) fps
Color space                            
 : YUV
Chroma subsampling                       : 4:2:0
Bit depth        
                        : 8 bits
Scan type                                :
Progressive
Bits/(Pixel*Frame)                       : 0.123
Stream size  
                            : 2.92 GiB (90%)
Title                          
          : The.Lure.20015.SUBBED.1080p.WEB-DL.DD5.1.H264-FGT
Language        
                         : English
Default                                  :
Yes
Forced                                   : No
Color range              
                : Limited
Color primaries                          :
BT.709
Transfer characteristics                 : BT.709
Matrix
coefficients                      : BT.709

Audio
ID                    
                   : 2
Format                                   :
AC-3
Format/Info                              : Audio Coding 3
Mode
extension                           : CM (complete main)
Format settings,
Endianness              : Big
Codec ID                                 :
A_AC3
Duration                                 : 1h 32mn
Bit rate mode    
                       : Constant
Bit rate                                 :
384 Kbps
Channel(s)                               : 6 channels
Channel
positions                        : Front: L C R, Side: L R, LFE
Sampling
rate                            : 48.0 KHz
Frame rate                      
        : 31.250 fps (1536 spf)
Compression mode                         :
Lossy
Delay relative to video                  : -42ms
Stream size        
                      : 254 MiB (8%)
Title                                  
 : The.Lure.20015.SUBBED.1080p.WEB-DL.DD5.1.H264-FGT
Language                
                : Polish
Default                                  :
Yes
Forced                                   :
No

Menu
00:00:00.000                             :
en:1
00:05:41.216                             : en:2
00:11:51.210        
                     : en:3
00:15:28.260                             :
en:4
00:21:01.760                             : en:5
00:27:27.896        
                     : en:6
00:32:18.102                             :
en:7
00:38:23.550                             : en:8
00:42:20.328        
                     : en:9
00:49:04.440                             :
en:10
00:55:20.232                             : en:11
00:58:56.156        
                     : en:12
01:05:31.342                             :
en:13
01:10:39.191                             : en:14
01:17:39.861        
                     : en:15
01:22:49.045                             :
en:16

附件名称/大小 下载次数 最后更新
The.Lure.2015.SUBBED.1080p.WEB-DL.DD5.1.H264-FGT.torrent (66KB)  132 06-05 15:39

最新喜欢:

wxq919wxq919
jiang757607lei
精灵王
精灵王
  • 注册日期2015-07-28
  • 发帖数290
  • 影币93枚
  • 魔力值1309点
  • 蓝光币3克拉
  • 社区居民
  • 忠实会员
沙发#
发布于:2017-06-05 18:12
谢谢分享。。。。
sch0771
圣骑士
圣骑士
  • 注册日期2017-03-20
  • 发帖数544
  • 影币488枚
  • 魔力值215点
  • 蓝光币16克拉
  • 社区居民
  • 忠实会员
板凳#
发布于:2017-06-05 18:23
感谢分享好资源。
muwind
骑士
骑士
  • 注册日期2017-02-05
  • 发帖数60
  • 影币29枚
  • 魔力值354点
  • 蓝光币7克拉
  • 社区居民
  • 忠实会员
地板#
发布于:2017-06-05 18:36
谢谢分享。。。。
快快快
新手
新手
  • 注册日期2017-06-03
  • 发帖数11
  • 影币6枚
  • 魔力值20点
  • 蓝光币0克拉
4楼#
发布于:2017-06-05 20:51
谢谢楼主的分享,顶一个,不顶不是人。
leexz
精灵王
精灵王
  • 注册日期2016-04-23
  • 发帖数225
  • 影币2405枚
  • 魔力值1027点
  • 蓝光币1克拉
  • 社区居民
  • 忠实会员
  • 原创写手
5楼#
发布于:2017-06-05 21:53
恐怖片 刚刚看了异星觉醒
jclovehome
圣骑士
圣骑士
  • 注册日期2016-12-23
  • 发帖数387
  • 影币250枚
  • 魔力值370点
  • 蓝光币0克拉
  • 社区居民
  • 忠实会员
6楼#
发布于:2017-06-05 23:19
谢谢分享了
jclovehome
圣骑士
圣骑士
  • 注册日期2016-12-23
  • 发帖数387
  • 影币250枚
  • 魔力值370点
  • 蓝光币0克拉
  • 社区居民
  • 忠实会员
7楼#
发布于:2017-06-05 23:20
谢谢分享了
854606292
圣骑士
圣骑士
  • 注册日期2016-10-11
  • 发帖数114
  • 影币16枚
  • 魔力值557点
  • 蓝光币0克拉
  • 社区居民
  • 忠实会员
8楼#
发布于:2017-06-06 08:06
店家族在岸邊遇見一對媚豔曼妙的美人魚姊妹,自此她們成為表演裡
duker
侠客
侠客
  • 注册日期2016-09-11
  • 发帖数35
  • 影币23枚
  • 魔力值161点
  • 蓝光币0克拉
  • 社区居民
9楼#
发布于:2017-06-06 10:34
感谢分享
zjm123
圣骑士
圣骑士
  • 注册日期2016-08-14
  • 发帖数539
  • 影币288枚
  • 魔力值314点
  • 蓝光币67克拉
  • 社区居民
  • 忠实会员
10楼#
发布于:2017-06-07 16:52
感谢分享好资源。
zijizizu
圣骑士
圣骑士
  • 注册日期2016-01-07
  • 发帖数382
  • 影币191枚
  • 魔力值246点
  • 蓝光币5克拉
  • 社区居民
11楼#
发布于:2017-06-08 19:53
谢谢分享
wxmshow
骑士
骑士
  • 注册日期2017-02-22
  • 发帖数86
  • 影币5枚
  • 魔力值250点
  • 蓝光币1克拉
  • 社区居民
12楼#
发布于:2017-06-08 22:55
好像不错的样子,,,,,
helloha
侠客
侠客
  • 注册日期2017-01-29
  • 发帖数43
  • 影币0枚
  • 魔力值111点
  • 蓝光币0克拉
  • 社区居民
13楼#
发布于:2017-06-09 11:25
谢谢分享
157679779
圣骑士
圣骑士
  • 注册日期2016-12-29
  • 发帖数115
  • 影币12枚
  • 魔力值554点
  • 蓝光币9克拉
  • 社区居民
14楼#
发布于:2017-06-10 17:09
好东西。。。。。。
上一页
游客
返回顶部