smy
smy
总版主
总版主
  • 注册日期2015-07-27
  • 发帖数1415
  • 影币63053枚
  • 魔力值2231点
  • 蓝光币0克拉
  • 社区居民
  • 忠实会员
  • 喜欢达人
  • 原创写手
阅读:12468回复:272

[SeeHD原创首发]拆弹专家 / 拆弹·专家 Shock Wave 2017 4K 2160p WEB-DL x264 AAC-SmY 中文(内嵌)5.49G

楼主#
更多 发布于:2017-06-23 16:28



◎译  名 拆弹·专家
◎片  名 拆弹专家
◎年  代 2017
◎产  地 中国大陆/香港
◎类  别 动作/犯罪/悬疑
◎语  言 汉语普通话/粤语
◎上映日期 2017-04-28(中国大陆)
◎IMDb评分  6.8/10 from 228 users
◎IMDb链接  http://www.imdb.com/title/tt5847286/
◎豆瓣评分 6.7/10 from 28,962 users
◎豆瓣链接 https://movie.douban.com/subject/26748673/
◎片  长 120分钟
◎导  演 邱礼涛 Herman Yau
◎主  演 刘德华 Andy Lau
姜武 Wu Jiang
宋佳 Jia Song
吴卓羲 Ron Ng
姜皓文 Philip Keung Ho-Man
王紫逸 Zi-yi Wang
黄日华 Felix Wong
石修 Sau Sek
廖启智 Kai Chi Liu
张竣杰 Chun Kit Chang
蔡瀚亿 Babyjohn Choi
张继聪 Louis Cheung
李国麟 Kwok-Lun Lee
骆应钧 Ying Kwan Lok
尹扬明 Yeung Ming Wan
卢惠光 Ken Lo
何华超 Tony Ho


◎简  介


章在山(刘德华 饰)是香港警队“爆炸品处理科”的一名高级督察。七年前,他潜伏到头号通缉犯火爆(姜武 饰)的犯罪团伙中,在一次打劫金库的行动中,章在山表露了其拆弹组卧底的身份,与警方里应外合,成功阻止炸弹引爆,并将火爆及其弟的犯罪组织一网打尽,可惜在千钧一发之间,火爆逃脱并扬言誓要报仇。复职后的章在山很快被晋升为警队的拆弹专家。七年后,香港接二连三遭遇炸弹恐怖袭击,警方更收到线报大批爆炸品已偷运入港,一切迹象显示香港将有大案发生。就在香港人心惶惶之际,城中最繁忙的红磡海底隧道被悍匪围堵拦截,数百名人质被胁持,终于现身的火爆威胁警方炸毁隧道。章在山唯有将火爆绳之于法,才能拆解这场反恐风暴背后的惊天阴谋。
General
Format                         : Matroska
Format version                 : Version 4 / Version 2
File size                      : 5.49 GiB
Duration                       : 1h 59mn
Overall bit rate               : 6 561 Kbps
Encoded date                   : UTC 2017-06-23 08:19:49
Writing application            : mkvmerge v7.1.0 ('Good Love') 32bit built on Jul 27 2014 12:59:18
Writing library                : libebml v1.3.0 + libmatroska v1.4.1

Video
ID                             : 1
Format                         : AVC
Format/Info                    : Advanced Video Codec
Format profile                 : High@L5.1
Format settings, CABAC         : Yes
Format settings, ReFrames      : 3 frames
Codec ID                       : V_MPEG4/ISO/AVC
Duration                       : 1h 59mn
Bit rate                       : 6 497 Kbps
Width                          : 3 840 pixels
Height                         : 1 616 pixels
Display aspect ratio           : 2.40:1
Frame rate mode                : Constant
Frame rate                     : 24.000 fps
Color space                    : YUV
Chroma subsampling             : 4:2:0
Bit depth                      : 8 bits
Scan type                      : Progressive
Bits/(Pixel*Frame)             : 0.044
Stream size                    : 5.44 GiB (99%)
Default                        : Yes
Forced                         : No
Color range                    : Limited
Color primaries                : BT.709
Transfer characteristics       : BT.709
Matrix coefficients            : BT.709

Audio
ID                             : 2
Format                         : AAC
Format/Info                    : Advanced Audio Codec
Format profile                 : HE-AAC / LC
Codec ID                       : A_AAC
Duration                       : 1h 59mn
Bit rate                       : 62.6 Kbps
Channel(s)                     : 2 channels
Channel positions              : Front: L R
Sampling rate                  : 44.1 KHz / 22.05 KHz
Frame rate                     : 21.533 fps (1024 spf)
Compression mode               : Lossy
Stream size                    : 53.7 MiB (1%)
Default                        : Yes
Forced                         : No










Shock Wave 2017 4K 2160p WEB-DL x264 AAC-SmY.torrent
lampc123
圣骑士
圣骑士
  • 注册日期2016-11-30
  • 发帖数291
  • 影币70枚
  • 魔力值493点
  • 蓝光币0克拉
  • 忠实会员
沙发#
发布于:2017-06-23 16:37
4K版本感谢分享!
天煞酷星
骑士
骑士
  • 注册日期2016-12-03
  • 发帖数113
  • 影币76枚
  • 魔力值202点
  • 蓝光币0克拉
板凳#
发布于:2017-06-23 16:37
感谢分享,世界需要爱
yixiqiao
精灵王
精灵王
  • 注册日期2016-04-13
  • 发帖数792
  • 影币1654枚
  • 魔力值404点
  • 蓝光币0克拉
  • 社区居民
  • 最爱沙发
  • 忠实会员
  • 原创写手
  • 追星一族
地板#
发布于:2017-06-23 16:43
很棒   建议置顶  很棒的电影
tibetanzhang
骑士
骑士
  • 注册日期2017-04-07
  • 发帖数141
  • 影币166枚
  • 魔力值244点
  • 蓝光币0克拉
  • 社区居民
  • 忠实会员
4楼#
发布于:2017-06-23 17:01
4K强大,感谢分享!
tuyuandong
新手
新手
  • 注册日期2016-12-13
  • 发帖数19
  • 影币25枚
  • 魔力值66点
  • 蓝光币0克拉
5楼#
发布于:2017-06-23 17:25
4K强大,感谢分享!
tuyuandong
新手
新手
  • 注册日期2016-12-13
  • 发帖数19
  • 影币25枚
  • 魔力值66点
  • 蓝光币0克拉
6楼#
发布于:2017-06-23 17:26
4K强大,感谢分享!
kinglxq2
侠客
侠客
  • 注册日期2016-08-07
  • 发帖数56
  • 影币2枚
  • 魔力值242点
  • 蓝光币0克拉
  • 社区居民
7楼#
发布于:2017-06-23 18:23
有粤语的吗?~~~~~~~~~~~
kinglxq2
侠客
侠客
  • 注册日期2016-08-07
  • 发帖数56
  • 影币2枚
  • 魔力值242点
  • 蓝光币0克拉
  • 社区居民
8楼#
发布于:2017-06-23 18:23
支持下~~~~~~~~~~~~~
yynn95
精灵王
精灵王
  • 注册日期2015-07-31
  • 发帖数384
  • 影币1612枚
  • 魔力值1860点
  • 蓝光币0克拉
  • 社区居民
  • 忠实会员
9楼#
发布于:2017-06-23 18:33
4K要支持一下。
lancelot413
圣骑士
圣骑士
  • 注册日期2015-10-15
  • 发帖数129
  • 影币0枚
  • 魔力值488点
  • 蓝光币0克拉
  • 社区居民
  • 忠实会员
10楼#
发布于:2017-06-23 19:03
片子还是不错的,值得一看
chtd
新手
新手
  • 注册日期2016-11-28
  • 发帖数3
  • 影币13枚
  • 魔力值16点
  • 蓝光币0克拉
11楼#
发布于:2017-06-23 19:29
多谢分享!
xiaoluo_008
骑士
骑士
  • 注册日期2016-04-28
  • 发帖数79
  • 影币13枚
  • 魔力值335点
  • 蓝光币0克拉
12楼#
发布于:2017-06-23 19:40
这个好看吗????????????????
cxy5300
骑士
骑士
  • 注册日期2016-11-13
  • 发帖数106
  • 影币0枚
  • 魔力值196点
  • 蓝光币0克拉
  • 社区居民
  • 忠实会员
13楼#
发布于:2017-06-23 19:48
支持!!!!!!!!!!!!!!!!!!!!!!
史浪生
侠客
侠客
  • 注册日期2016-11-21
  • 发帖数13
  • 影币43枚
  • 魔力值252点
  • 蓝光币0克拉
  • 社区居民
14楼#
发布于:2017-06-23 20:16
没下载速度
上一页
游客
返回顶部