gananicus
管理员
管理员
  • 注册日期2015-07-28
  • 发帖数571
  • 影币16515枚
  • 魔力值461点
  • 蓝光币0克拉
  • 社区居民
阅读:659回复:13

[动作]新木乃伊/盗墓迷城【韩版/汤姆·克鲁斯主演美国奇幻动作大片】The.Mummy.2017.720p.HDRip.x264.AAC2.0-STU 2.8GB

楼主#
更多 发布于:2017-07-11 14:08



◎译  名 新木乃伊/盗墓迷城(港)/神鬼传奇(台)
◎片  名 The
Mummy
◎年  代 2017
◎产  地 美国
◎类  别 动作/奇幻/冒险
◎语  言 英语
◎上映日期 2017-06-09(中国大陆/美国)
◎IMDb评分  5.7/10
from 40,174 users
◎IMDb链接  http://www.imdb.com/title/tt2345759/
◎豆瓣评分 4.8/10 from
48,193 users
◎豆瓣链接 https://movie.douban.com/subject/20451290/
◎片  长 107分钟/106分钟(中国大陆)
◎导  演 艾里克斯·库兹曼
Alex Kurtzman
◎主  演 汤姆·克鲁斯 Tom Cruise
 罗素·克劳 Russell
Crowe
 安娜贝拉·沃丽丝 Annabelle Wallis
 索菲亚·波多拉 Sofia
Boutella
 杰克·约翰逊 Jake M. Johnson
 考特尼·万斯 Courtney B.
Vance
 马尔万·肯扎里 Marwan Kenzari
 斯蒂芬·汤普森 Stephen
Thompson
 詹姆斯·阿拉马 James Arama
 马修·威尔卡斯 Matthew
Wilkas
 索姆·卡皮拉 Sohm Kapila
 肖恩·卡梅伦·迈克尔 Sean Cameron
Michael
 雷兹·肯普顿 Rez Kempton
 尼尔·马斯克尔 Neil
Maskell
 哈维尔·博特 Javier Botet
 帕克·索耶 Parker
Sawyers

◎简  介

 新版《木乃伊》讲述了一个全新故事,木乃伊公主阿玛内特穿梭到现代伦敦,企图寻回她曾被夺去的一切。
 本片由动作巨星汤姆·克鲁斯主演。凭借《王牌特工》中的
“刀锋女”一角大热的新锐女星索菲亚·宝特拉饰演有巨大毁灭力量的木乃伊公主阿玛内特,而好莱坞著名硬汉男星罗素·克劳
也有精彩表现。
 导演艾里克斯·库兹曼为好莱坞资深制片人,作品包括《惊天魔盗团》、
《星际迷航:暗黑无界》、《碟中谍3》等。
 据悉,影片将于近日发布全球首支官方预告片,届时将有更多精彩场景呈献,并将揭晓更多神秘剧情。该片北美预计2017年6月9
日上映。

Video
ID                                       : 1
Format    
                              : AVC
Format/Info                            
 : Advanced Video Codec
Format profile                           : High@L4.1
Format settings, CABAC                
  : Yes
Format settings, ReFrames                : 4 frames
Codec ID    
                            : avc1
Codec ID/Info                            :
Advanced Video Coding
Duration                                 : 1 h 50
min
Bit rate                                 : 3 500 kb/s
Width          
                         : 1 280 pixels
Height                                
   : 534 pixels
Display aspect ratio                     : 2.40:1
Original
display aspect ratio            : 2.40:1
Frame rate mode                    
      : Constant
Frame rate                               : 30.000
FPS
Color space                              : YUV
Chroma subsampling    
                  : 4:2:0
Bit depth                                : 8
bits
Scan type                                :
Progressive
Bits/(Pixel*Frame)                       : 0.171
Stream size  
                            : 2.68 GiB (94%)
Title                          
          : The.Mummy.2017.720p.KORSUB.HDRip.x264.AAC2.0-STUTTERSHIT
Writing
library                          : x264 core 152 r2851M ba24899
Encoding
settings                        : cabac=1 / ref=4 / deblock=1:0:0 /
analyse=0x3:0x113 / me=umh / subme=8 / psy=1 / psy_rd=1.00:0.00 / mixed_ref=1 /
me_range=16 / chroma_me=1 / trellis=2 / 8x8dct=1 / cqm=0 / deadzone=21,11 /
fast_pskip=1 / chroma_qp_offset=-2 / threads=40 / lookahead_threads=4 /
sliced_threads=0 / nr=0 / decimate=1 / interlaced=0 / bluray_compat=0 /
constrained_intra=0 / bframes=3 / b_pyramid=2 / b_adapt=2 / b_bias=0 / direct=3
/ weightb=1 / open_gop=0 / weightp=2 / keyint=250 / keyint_min=25 / scenecut=40
/ intra_refresh=0 / rc_lookahead=50 / rc=abr / mbtree=1 / bitrate=3500 /
ratetol=1.0 / qcomp=0.60 / qpmin=0 / qpmax=69 / qpstep=4 / ip_ratio=1.40 /
aq=1:1.00

Audio
ID                                       :
2
Format                                   : AAC
Format/Info              
                : Advanced Audio Codec
Format profile                      
    : LC
Codec ID                                 : 40
Duration          
                      : 1 h 50 min
Bit rate mode                            :
Constant
Bit rate                                 : 224 kb/s
Channel(s)  
                             : 2 channels
Channel positions                
       : Front: L R
Sampling rate                            : 48.0
kHz
Frame rate                               : 46.875 FPS (1024
spf)
Compression mode                         : Lossy
Stream size        
                      : 177 MiB (6%)
Title                                  
 : The.Mummy.2017.720p.KORSUB.HDRip.x264.AAC2.0-STUTTERSHIT
Default          
                       : Yes
Alternate group                          :
1

附件名称/大小 下载次数 最后更新
The.Mummy.2017.720p.KORSUB.HDRip.x264.AAC2.0-STUTTERSHIT.torrent (58KB)  118 07-11 14:08

最新喜欢:

138528008138528...
simonlaw
侠客
侠客
  • 注册日期2016-12-26
  • 发帖数19
  • 影币1枚
  • 魔力值204点
  • 蓝光币0克拉
  • 社区居民
  • 忠实会员
沙发#
发布于:2017-07-11 14:53
这么快就可以看了!
HYXTT138183
新手
新手
  • 注册日期2017-06-27
  • 发帖数2
  • 影币1枚
  • 魔力值28点
  • 蓝光币0克拉
  • 社区居民
板凳#
发布于:2017-07-11 17:57
没得字
jiansen1988
侠客
侠客
  • 注册日期2016-06-28
  • 发帖数16
  • 影币2枚
  • 魔力值188点
  • 蓝光币0克拉
地板#
发布于:2017-07-11 19:37
The.Mummy.2017.1080p.KORSUB.HDRip.x264.AAC2.0-STUTTERSHIT
beta5
贫民
贫民
  • 注册日期2017-07-11
  • 发帖数2
  • 影币2枚
  • 魔力值8点
  • 蓝光币0克拉
  • 社区居民
4楼#
发布于:2017-07-11 19:59
怎么一下就积分不足啊。
seehd1d
侠客
侠客
  • 注册日期2017-03-20
  • 发帖数40
  • 影币54枚
  • 魔力值192点
  • 蓝光币0克拉
  • 社区居民
  • 忠实会员
5楼#
发布于:2017-07-11 20:15
没中文的吗
开门啊,我隔壁老王
tpw815423
精灵王
精灵王
  • 注册日期2015-07-29
  • 发帖数521
  • 影币2553枚
  • 魔力值1420点
  • 蓝光币0克拉
  • 社区居民
  • 忠实会员
6楼#
发布于:2017-07-11 20:16
感謝大大無私分享
138528008
骑士
骑士
  • 注册日期2016-11-29
  • 发帖数31
  • 影币1枚
  • 魔力值278点
  • 蓝光币0克拉
  • 社区居民
  • 忠实会员
7楼#
发布于:2017-07-12 10:00
喜欢支持  有没有中字啊
jemy
精灵王
精灵王
  • 注册日期2015-07-28
  • 发帖数243
  • 影币0枚
  • 魔力值1098点
  • 蓝光币0克拉
8楼#
发布于:2017-07-13 06:38
这么快就可以看了!
atgso
侠客
侠客
  • 注册日期2015-09-27
  • 发帖数13
  • 影币1枚
  • 魔力值156点
  • 蓝光币0克拉
9楼#
发布于:2017-07-13 09:46
求中文字幕
samun1585
侠客
侠客
  • 注册日期2015-08-20
  • 发帖数30
  • 影币0枚
  • 魔力值118点
  • 蓝光币0克拉
10楼#
发布于:2017-07-13 20:08
感謝大大無私分享 .....
llstar
圣骑士
圣骑士
  • 注册日期2015-09-27
  • 发帖数189
  • 影币18枚
  • 魔力值484点
  • 蓝光币0克拉
11楼#
发布于:2017-07-15 12:04
好片,谢谢分享
zhenghui2017
新手
新手
  • 注册日期2017-04-08
  • 发帖数26
  • 影币8枚
  • 魔力值28点
  • 蓝光币0克拉
12楼#
发布于:2017-07-22 11:34
感谢分享
hellojiang
侠客
侠客
  • 注册日期2017-01-14
  • 发帖数72
  • 影币29枚
  • 魔力值174点
  • 蓝光币0克拉
  • 社区居民
  • 忠实会员
13楼#
发布于:2017-07-22 22:51
这么快就可以看了!
游客
返回顶部