gananicus
管理员
管理员
  • 注册日期2015-07-28
  • 发帖数571
  • 影币16515枚
  • 魔力值461点
  • 蓝光币0克拉
  • 社区居民
阅读:853回复:54

[动作]攻壳机动队/攻壳机动队真人版.Ghost.in.the.Shell.2017.1080p.BluRay.x264-DRONES 7.66 GiB

楼主#
更多 发布于:2017-07-12 15:24



◎译  名 攻壳机动队/攻壳机动队真人版
◎片  名 Ghost
in the
Shell
◎年  代 2017
◎产  地 美国
◎类  别 动作/科幻/犯罪
◎语  言 英语/日语
◎上映日期 2017-03-29(法国)/2017-03-31(美国)/2017-04-07(中国大陆)
◎IMDb评分  6.6/10
from 69,343 users
◎IMDb链接  http://www.imdb.com/title/tt1219827/
◎豆瓣评分 6.5/10 from
76,935 users
◎豆瓣链接 https://movie.douban.com/subject/25818101/
◎片  长 107分钟
◎导  演 鲁伯特·桑德斯
Rupert Sanders
◎主  演 斯嘉丽·约翰逊 Scarlett Johansson
 皮鲁·埃斯贝克 Pilou
Asbæk
 北野武 Takeshi Kitano
 朱丽叶·比诺什 Juliette
Binoche
 迈克尔·皮特 Michael Pitt
 黄经汉 Chin Han
 丹妮西娅·萨马尔
Danusia Samal
 拉札勒斯·雷图勒 Lasarus Ratuere
 泉原豊 Yutaka
Izumihara
 托万达·马尼莫 Tawanda Manyimo
 彼得·费迪南多 Peter
Ferdinando
 安娜玛丽亚·玛琳卡 Anamaria Marinca
 丹尼尔·亨绍尔 Daniel
Henshall
 安德鲁·斯特林 Andrew Stehlin
 桃井薰 Kaori
Momoi
 查尔斯·欧比 Chris Obi
 福岛莉拉 Rila Fukushima
 约瑟夫·纳瓦胡
Joseph Naufahu
 迈克尔·维克特 Michael
Wincott

◎简  介

 近未来,人类的各种器官均可实现移植,一时间机器人、生化人、仿生人充斥世间,与人类真假莫辨。某座繁华都市的大厦内,汉卡公司高管正与非洲来宾洽谈业务,突然宴会变成血腥大屠杀,暴走的机器人大开杀戒。隶属公安九课的米拉·基里安少佐(斯嘉丽·约翰逊
Scarlett Johansson 饰)带领巴特(皮鲁·埃斯贝克 Pilou Asbæk
饰)等手下赶往现场,平息事态。根据对暴走艺伎机器人的调查发现,被称作“久世”的神秘之人策划了这一系列的行动,而且他的目标全部指向了掌握着生化前沿尖端科技的汉卡公司及其研发人员。经过一番凶险的周旋,少佐逐渐逼近真相,同时也渐渐解开了发生在自己身上的惊天秘密……
 本片根据士郎正宗的经典原作改编。

Video
ID  
                                     : 1
Format                            
      : AVC
Format/Info                              : Advanced Video
Codec
Format profile                           : High@L4.1
Format settings, CABAC                
  : Yes
Format settings, ReFrames                : 4 frames
Codec ID    
                            : V_MPEG4/ISO/AVC
Duration                      
          : 1h 46mn
Bit rate                                 : 9 602
Kbps
Width                                    : 1 920 pixels
Height        
                           : 1 080 pixels
Display aspect ratio              
       : 16:9
Frame rate mode                          : Constant
Frame
rate                               : 23.976 fps
Color space                
             : YUV
Chroma subsampling                       : 4:2:0
Bit
depth                                : 8 bits
Scan type                      
         : Progressive
Bits/(Pixel*Frame)                       :
0.193
Stream size                              : 7.17 GiB (94%)
Writing
library                          : x264 core 150 r2833 df79067
Encoding
settings                        : cabac=1 / ref=4 / deblock=1:0:0 /
analyse=0x3:0x133 / me=umh / subme=7 / psy=1 / psy_rd=1.00:0.00 / mixed_ref=1 /
me_range=16 / chroma_me=1 / trellis=1 / 8x8dct=1 / cqm=0 / deadzone=21,11 /
fast_pskip=0 / chroma_qp_offset=-2 / threads=24 / lookahead_threads=4 /
sliced_threads=0 / nr=0 / decimate=1 / interlaced=0 / bluray_compat=0 /
constrained_intra=0 / bframes=3 / b_pyramid=2 / b_adapt=1 / b_bias=0 / direct=1
/ weightb=1 / open_gop=0 / weightp=2 / keyint=250 / keyint_min=23 / scenecut=40
/ intra_refresh=0 / rc_lookahead=40 / rc=2pass / mbtree=1 / bitrate=9602 /
ratetol=1.0 / qcomp=0.60 / qpmin=0 / qpmax=69 / qpstep=4 / cplxblur=20.0 /
qblur=0.5 / ip_ratio=1.40 / aq=1:1.00
Language                                
 : English
Default                                  : Yes
Forced          
                        : No

Audio
ID                                
       : 2
Format                                   : AC-3
Format/Info    
                         : Audio Coding 3
Mode extension                    
       : CM (complete main)
Format settings, Endianness              :
Big
Codec ID                                 : A_AC3
Duration              
                   : 1h 46mn
Bit rate mode                            :
Constant
Bit rate                                 : 640 Kbps
Channel(s)  
                             : 6 channels
Channel positions                
       : Front: L C R, Side: L R, LFE
Sampling rate                          
  : 48.0 KHz
Frame rate                               : 31.250 fps (1536
spf)
Compression mode                         : Lossy
Stream size        
                      : 490 MiB (6%)
Language                                
 : English
Default                                  : Yes
Forced          
                        : No

Menu
00:00:00.000                      
      : en:00:00:00.000
00:08:09.322                             :
en:00:08:09.322
00:14:39.962                             :
en:00:14:39.962
00:21:26.494                             :
en:00:21:26.494
00:28:02.681                             :
en:00:28:02.681
00:34:13.218                             :
en:00:34:13.218
00:39:27.615                             :
en:00:39:27.615
00:43:57.802                             :
en:00:43:57.802
00:51:49.815                             :
en:00:51:49.815
00:55:19.066                             :
en:00:55:19.066
01:01:06.872                             :
en:01:01:06.872
01:07:49.732                             :
en:01:07:49.732
01:14:36.972                             :
en:01:14:36.972
01:20:31.744                             :
en:01:20:31.744
01:27:46.178                             :
en:01:27:46.178
01:33:41.407                             :
en:01:33:41.407
01:38:00.083                             :
en:01:38:00.083

附件名称/大小 下载次数 最后更新
Ghost.in.the.Shell.2017.1080p.BluRay.x264-DRONES.torrent (78KB)  220 07-12 15:24

最新喜欢:

你画我猜你画我猜 fancy_78fancy_...
gugule
圣骑士
圣骑士
  • 注册日期2015-07-30
  • 发帖数148
  • 影币21枚
  • 魔力值824点
  • 蓝光币0克拉
  • 社区居民
  • 忠实会员
沙发#
发布于:2017-07-12 15:35
终于等到高清的了
guominbeyond
骑士
骑士
  • 注册日期2016-10-21
  • 发帖数35
  • 影币0枚
  • 魔力值394点
  • 蓝光币0克拉
  • 社区居民
  • 忠实会员
板凳#
发布于:2017-07-12 17:37
真心不错,这个片子,谢谢楼主分享
xiaoniu912
骑士
骑士
  • 注册日期2015-07-31
  • 发帖数109
  • 影币5枚
  • 魔力值467点
  • 蓝光币0克拉
  • 社区居民
  • 忠实会员
地板#
发布于:2017-07-12 18:59
真的就出来了吗,
simonlee_ks
圣骑士
圣骑士
  • 注册日期2015-07-28
  • 发帖数47
  • 影币0枚
  • 魔力值711点
  • 蓝光币0克拉
  • 社区居民
4楼#
发布于:2017-07-12 19:31
真心不错,这个片子,谢谢楼主分享
fashionshifu
骑士
骑士
  • 注册日期2016-09-24
  • 发帖数100
  • 影币1枚
  • 魔力值304点
  • 蓝光币0克拉
5楼#
发布于:2017-07-12 19:41
great movie
fashionshifu
骑士
骑士
  • 注册日期2016-09-24
  • 发帖数100
  • 影币1枚
  • 魔力值304点
  • 蓝光币0克拉
6楼#
发布于:2017-07-12 19:42
great movie
money
精灵王
精灵王
  • 注册日期2016-03-05
  • 发帖数79
  • 影币2047枚
  • 魔力值960点
  • 蓝光币0克拉
  • 社区居民
  • 忠实会员
7楼#
发布于:2017-07-12 19:47
謝謝樓主無私分享
zhubajie123
新手
新手
  • 注册日期2017-03-12
  • 发帖数6
  • 影币0枚
  • 魔力值44点
  • 蓝光币0克拉
8楼#
发布于:2017-07-12 19:57
andylj
侠客
侠客
  • 注册日期2016-05-18
  • 发帖数48
  • 影币7枚
  • 魔力值120点
  • 蓝光币0克拉
  • 社区居民
9楼#
发布于:2017-07-12 20:53
蓝光版的???
潤物無聲
侠客
侠客
  • 注册日期2016-01-25
  • 发帖数31
  • 影币4枚
  • 魔力值238点
  • 蓝光币0克拉
  • 社区居民
  • 忠实会员
10楼#
发布于:2017-07-12 21:40
谢谢楼主分享
donglihuoche
新手
新手
  • 注册日期2017-06-29
  • 发帖数14
  • 影币2枚
  • 魔力值52点
  • 蓝光币0克拉
11楼#
发布于:2017-07-12 22:02
说实话 这片子真心不好看
lampc123
圣骑士
圣骑士
  • 注册日期2016-11-30
  • 发帖数279
  • 影币64枚
  • 魔力值459点
  • 蓝光币0克拉
  • 忠实会员
12楼#
发布于:2017-07-12 22:15
谢谢楼主分享
liguochuan
精灵王
精灵王
  • 注册日期2015-10-03
  • 发帖数545
  • 影币2242枚
  • 魔力值1038点
  • 蓝光币0克拉
  • 社区居民
  • 忠实会员
13楼#
发布于:2017-07-12 22:56
不错的影片
nttg
侠客
侠客
  • 注册日期2017-02-25
  • 发帖数38
  • 影币4枚
  • 魔力值227点
  • 蓝光币0克拉
14楼#
发布于:2017-07-12 23:05
这个不错,终于等到高清的出来了
上一页
游客
返回顶部