gananicus
管理员
管理员
  • 注册日期2015-07-28
  • 发帖数571
  • 影币16515枚
  • 魔力值461点
  • 蓝光币0克拉
  • 社区居民
阅读:373回复:7

[喜剧]指甲刀人魔[内封中字].A.Nail.Clipper.Romance.2017.1080p.BluRay.x264-WiKi 9.4GB

楼主#
更多 发布于:2017-07-15 21:10



◎译  名 ANailClipperRomance
◎片  名 指甲刀人魔
◎年  代 2017
◎产  地 中国大陆/香港
◎类  别 喜剧/爱情
◎语  言 汉语普通话
◎上映日期 2017-04-11(北京电影节)/2017-04-14(中国大陆)
◎IMDb评分  5.3/10
from 9 users
◎IMDb链接  http://www.imdb.com/title/tt6839248/
◎豆瓣评分 4.5/10 from
5,028 users
◎豆瓣链接 https://movie.douban.com/subject/26352435/
◎片  长 100分钟
◎导  演 关智耀
Jason Kwan Chi-Yiu
◎主  演 周冬雨 Dongyu Zhou
 张孝全 Hsiao-chuan
Chang
 纳豆 Na Dow
 林辰唏 Zaizai Lin
 蔡洁 Jacky
Cai
 盛朗熙 Joy Sheng
 郑伊健 Ekin Cheng
 谢依霖 Yilin
Sie
 许玮甯 Tiffany Hsu

◎简  介

 西恩(张孝全
饰)是一个单纯善良的男孩,和女友拍拖多年,对她的感情十分深厚。然而令他怎么也没有想到的是,自己的耿耿忠心换来的却是对方的无情背叛,愤怒和痛苦之中,西恩选择了离开,与此同时,他内心里对于爱情的信仰永远的破碎了。为了不受伤害,西恩彻底的关闭了心扉。
 一次偶然中,西恩邂逅了名为艾米丽(周冬雨
饰)的可爱女孩。艾米丽的大大咧咧活泼可爱渐渐治愈了西恩心中的伤痕,他开始想要再度尝试相信艾米丽,相信爱情。然而,这一次,西恩又要失望了,原来,看似单纯的艾米丽隐藏了一个诡异的秘密——她是一个靠吃指甲刀维生的指甲刀人魔。

Video
ID  
                                     : 1
Format                            
      : AVC
Format/Info                              : Advanced Video
Codec
Format profile                           : High@L4.1
Format settings, CABAC                
  : Yes
Format settings, ReFrames                : 5 frames
Codec ID    
                            : V_MPEG4/ISO/AVC
Duration                      
          : 1 h 39 min
Bit rate                                 : 13.0
Mb/s
Width                                    : 1 920 pixels
Height        
                           : 816 pixels
Display aspect ratio                
    : 2.35:1
Frame rate mode                          : Constant
Frame
rate                               : 24.000 FPS
Color space                
             : YUV
Chroma subsampling                       : 4:2:0
Bit
depth                                : 8 bits
Scan type                      
         : Progressive
Bits/(Pixel*Frame)                       :
0.346
Stream size                              : 9.03 GiB (95%)
Writing
library                          : x264 core 148 r2762+56 6284cf3 t_mod_Custom
[8-bit@all X86_64]
Encoding settings                        : cabac=1 / ref=5
/ deblock=1:-3:-3 / analyse=0x3:0x133 / me=umh / subme=10 / psy=1 /
fade_compensate=0.00 / psy_rd=1.05:0.00 / mixed_ref=1 / me_range=32 /
chroma_me=1 / trellis=2 / 8x8dct=1 / cqm=0 / deadzone=21,11 / fast_pskip=1 /
chroma_qp_offset=-2 / threads=6 / lookahead_threads=1 / sliced_threads=0 / nr=0
/ decimate=1 / interlaced=0 / bluray_compat=0 / constrained_intra=0 / fgo=0 /
bframes=9 / b_pyramid=2 / b_adapt=1 / b_bias=0 / direct=3 / weightb=1 /
open_gop=0 / weightp=2 / keyint=250 / keyint_min=24 / scenecut=40 /
intra_refresh=0 / rc=2pass / mbtree=0 / bitrate=13000 / ratetol=1.0 / qcomp=0.65
/ qpmin=0:0:0 / qpmax=69:69:69 / qpstep=4 / cplxblur=20.0 / qblur=0.5 /
ip_ratio=1.40 / pb_ratio=1.30 / aq=1:0.85 / aq-sensitivity=10.00 /
aq-factor=1.00:1.00:1.00 / aq2=0 / aq3=0
Default                            
     : Yes
Forced                                   : No

Audio
ID  
                                     : 2
Format                            
      : AC-3
Format/Info                              : Audio Coding
3
Format settings, Endianness              : Big
Codec ID                
                : A_AC3
Duration                                 : 1 h 39
min
Bit rate mode                            : Constant
Bit rate          
                      : 640 kb/s
Channel(s)                               : 6
channels
Channel positions                        : Front: L C R, Side: L R,
LFE
Sampling rate                            : 48.0 kHz
Frame rate        
                       : 31.250 FPS (1536 spf)
Bit depth                    
            : 16 bits
Compression mode                         :
Lossy
Stream size                              : 455 MiB (5%)
Language    
                            : Chinese
Service kind                          
   : Complete Main
Default                                  : Yes
Forced  
                                 : No

Text #1
ID                      
                : 3
Format                                   : UTF-8
Codec
ID                                 : S_TEXT/UTF8
Codec ID/Info              
              : UTF-8 Plain Text
Duration                                 : 1
h 33 min
Bit rate                                 : 54 b/s
Count of
elements                        : 1396
Stream size                          
    : 37.2 KiB (0%)
Title                                    :
chs
Language                                 : Chinese
Default          
                       : No
Forced                                   :
No

Text #2
ID                                       : 4
Format    
                              : UTF-8
Codec ID                                
 : S_TEXT/UTF8
Codec ID/Info                            : UTF-8 Plain
Text
Duration                                 : 1 h 33 min
Bit rate        
                         : 54 b/s
Count of elements                        :
1396
Stream size                              : 37.2 KiB (0%)
Title        
                            : cht
Language                                 :
Chinese
Default                                  : No
Forced              
                     : No

Menu
00:00:00.000                          
   : en:00:00:00.000
00:07:30.417                             :
en:00:07:30.417
00:16:51.042                             :
en:00:16:51.042
00:23:06.792                             :
en:00:23:06.792
00:32:12.000                             :
en:00:32:12.000
00:41:09.750                             :
en:00:41:09.750
00:50:00.583                             :
en:00:50:00.583
00:58:08.000                             :
en:00:58:08.000
01:06:07.625                             :
en:01:06:07.625
01:13:23.458                             :
en:01:13:23.458
01:21:29.833                             :
en:01:21:29.833
01:31:14.583                             :
en:01:31:14.583

附件名称/大小 下载次数 最后更新
A.Nail.Clipper.Romance.2017.1080p.BluRay.x264-WiKi.torrent (96KB)  23 07-15 21:10
donglihuoche
新手
新手
  • 注册日期2017-06-29
  • 发帖数14
  • 影币2枚
  • 魔力值52点
  • 蓝光币0克拉
沙发#
发布于:2017-07-15 22:29
meikanmingbaishenmeshijuqingjiesjiao
coin.c
终生无尚荣耀蓝光粉
终生无尚荣耀蓝光粉
  • 注册日期2015-12-27
  • 发帖数27
  • 影币8921枚
  • 魔力值1340点
  • 蓝光币666克拉
  • 社区居民
  • VIP会员
  • 荣誉会员
板凳#
发布于:2017-07-16 01:59
什么gui......这简介
douglas
精灵王
精灵王
  • 注册日期2015-08-06
  • 发帖数626
  • 影币0枚
  • 魔力值839点
  • 蓝光币0克拉
  • 忠实会员
地板#
发布于:2017-07-16 10:31
感謝分享!
douglas
精灵王
精灵王
  • 注册日期2015-08-06
  • 发帖数626
  • 影币0枚
  • 魔力值839点
  • 蓝光币0克拉
  • 忠实会员
4楼#
发布于:2017-07-16 10:32
感謝分享! !
jclovehome
圣骑士
圣骑士
  • 注册日期2016-12-23
  • 发帖数379
  • 影币246枚
  • 魔力值346点
  • 蓝光币0克拉
  • 社区居民
  • 忠实会员
5楼#
发布于:2017-07-16 14:55
谢谢分享了
FJ凯
贫民
贫民
  • 注册日期2017-07-20
  • 发帖数4
  • 影币4枚
  • 魔力值14点
  • 蓝光币0克拉
  • 社区居民
6楼#
发布于:2017-07-20 23:15
看过,,感觉一般。
hsienchiou
骑士
骑士
  • 注册日期2015-08-03
  • 发帖数40
  • 影币1枚
  • 魔力值281点
  • 蓝光币0克拉
7楼#
发布于:2017-07-21 10:14
感謝分享!
游客
返回顶部