sww
sww
论坛版主
论坛版主
  • 注册日期2015-12-13
  • 发帖数1090
  • 影币22360枚
  • 魔力值1215点
  • 蓝光币0克拉
  • 社区居民
  • 最爱沙发
  • 忠实会员
  • 喜欢达人
  • 原创写手
阅读:757回复:11

[剧情]天才麻将少女/咲 -Saki- 劇場版 Saki.2017.720p.BluRay.x264-WiKi 7.95G

楼主#
更多 发布于:2017-07-16 09:41

【中文片名】: 咲 -Saki- 劇場版
【片名】: 咲 -Saki- 劇場版
【又名】:  
【国家】: 日本
【影片类型】: 剧情
【影片年代】: 2017
【导演】: 小沼雄一
【编剧】: 森ハヤシ
【主演】: 滨边美波 Minami Hamabe,浅川梨奈 Nana Asakawa,广田爱佳 廣田あいか,古畑星夏 Seika Furuhata,山田杏奈 Anna Yamada,加村真美 Mami Kamura,樋口柚子 Yuzu Higuchi,星名美津纪 Mizuki Hoshina,吉崎綾,武田玲奈 Rena Takeda,冈本夏美 Natsumi Okamoto,ano,大西亜玖璃,长泽茉里奈 Marina Nagasawa,山地真理 Mari Yamachi,永尾玛利亚 Mariya Nagao,柴田杏花 Kyoka Shibata,小篠恵奈 Ena Koshino,金子理江 Rie Kenako,菊地麻衣,夏菜 Natsuna,佐野雏子 Hinako Sano,玉城裕规 Yuki Tamaki
【时长】:  
【上映时间】: 2017-02-03(日本)
【imdb】: tt6027102
【评分】: imdb 6.0  豆瓣6.0



影片简介


故事讲述21世纪有两位天才女高中生,降临在这个靠打麻将实力来左右人生的时代。一位是每一次都能够以正负0分没输没赢的方式打完牌局的少女宫永咲。另一位是在全国中学生麻将大赛个人组中夺冠的少女,经验数据系选手原村和。因某次偶然的相会,和被咲不在乎输赢的打法所击败,咲对和说出“我不喜欢麻将”这句话。和被这一句话刺激后,激起斗争心。另一方面为了咲追赶姐姐而加入和所在的学校麻将部,两位少女就此向麻将界的顶点进发.


预告片和图片



MediaInfo
 Video
 ID                                       : 1
 Format                                   : AVC
 Format/Info                              : Advanced Video Codec
 Format profile                           : High@L4.1
 Format settings, CABAC                   : Yes
 Format settings, ReFrames                : 4 frames
 Codec ID                                 : V_MPEG4/ISO/AVC
 Duration                                 : 1 h 43 min
 Bit rate                                 : 9 484 kb/s
 Width                                    : 1 920 pixels
 Height                                   : 1 038 pixels
 Display aspect ratio                     : 1.85:1
 Frame rate mode                          : Constant
 Frame rate                               : 23.976 (24000/1001) FPS
 Color space                              : YUV
 Chroma subsampling                       : 4:2:0
 Bit depth                                : 8 bits
 Scan type                                : Progressive
 Bits/(Pixel*Frame)                       : 0.198
 Stream size                              : 6.85 GiB (86%)
 Writing library                          : x264 core 129 r2245+704+36 8e61944 tMod+MixAQ [8-bit@4:2:0 X86_64]
 Encoding settings                        : cabac=1 / ref=4 / deblock=1:-3:-3 / analyse=0x3:0x133 / me=umh / subme=11 / psy=1 / fade_compensate=0.00 / psy_rd=1.05:0.10 / mixed_ref=1 / me_range=64 / chroma_me=1 / trellis=2 / 8x8dct=1 / cqm=0 / deadzone=21,11 / fast_pskip=0 / chroma_qp_offset=-3 / threads=18 / lookahead_threads=3 / sliced_threads=0 / nr=0 / decimate=0 / interlaced=0 / bluray_compat=0 / constrained_intra=0 / fgo=0 / bframes=10 / b_pyramid=2 / b_adapt=2 / b_bias=0 / direct=3 / weightb=1 / open_gop=0 / weightp=2 / keyint=250 / keyint_min=23 / scenecut=40 / intra_refresh=0 / rc=2pass / mbtree=0 / bitrate=9484 / ratetol=1.0 / qcomp=0.70 / qpmin=0 / qpmax=69 / qpstep=4 / cplxblur=20.0 / qblur=0.5 / ip_ratio=1.40 / pb_ratio=1.30 / aq=1 / aq-strength=0.90 / aq-sensitivity=10.00 / aq-ifactor=1.00 / aq-pfactor=1.00 / aq-bfactor=1.00 / aq2=0
 Language                                 : Japanese
 Default                                  : Yes
 Forced                                   : No

 Audio
 ID                                       : 2
 Format                                   : DTS
 Format/Info                              : Digital Theater Systems
 Mode                                     : 16
 Format settings, Endianness              : Big
 Codec ID                                 : A_DTS
 Duration                                 : 1 h 43 min
 Bit rate mode                            : Constant
 Bit rate                                 : 1 509 kb/s
 Channel(s)                               : 6 channels
 Channel positions                        : Front: L C R, Side: L R, LFE
 Sampling rate                            : 48.0 kHz
 Frame rate                               : 93.750 FPS (512 spf)
 Bit depth                                : 24 bits
 Compression mode                         : Lossy
 Stream size                              : 1.09 GiB (14%)
 Language                                 : Japanese
 Default                                  : Yes
 Forced                                   : No

 Text #1
 ID                                       : 3
 Format                                   : ASS
 Codec ID                                 : S_TEXT/ASS
 Codec ID/Info                            : Advanced Sub Station Alpha
 Duration                                 : 1 h 43 min
 Bit rate                                 : 78 b/s
 Count of elements                        : 1452
 Compression mode                         : Lossless
 Stream size                              : 59.4 KiB (0%)
 Title                                    : Simplified
 Language                                 : Chinese
 Default                                  : Yes
 Forced                                   : No

 Text #2
 ID                                       : 4
 Format                                   : ASS
 Codec ID                                 : S_TEXT/ASS
 Codec ID/Info                            : Advanced Sub Station Alpha
 Duration                                 : 1 h 43 min
 Bit rate                                 : 78 b/s
 Count of elements                        : 1452
 Compression mode                         : Lossless
 Stream size                              : 59.4 KiB (0%)
 Title                                    : Traditional
 Language                                 : Chinese
 Default                                  : No
 Forced                                   : No

 Menu
 00:00:00.000                             : en:00:00:00.000
 00:02:25.228                             : en:00:02:25.228
 00:03:42.847                             : en:00:03:42.847
 00:10:50.649                             : en:00:10:50.649
 00:12:56.609                             : en:00:12:56.609
 00:24:29.509                             : en:00:24:29.509
 00:29:55.502                             : en:00:29:55.502
 00:39:53.849                             : en:00:39:53.849
 00:48:47.257                             : en:00:48:47.257
 00:54:22.008                             : en:00:54:22.008
 01:07:16.741                             : en:01:07:16.741
 01:12:35.976                             : en:01:12:35.976
 01:25:29.916                             : en:01:25:29.916
 01:34:00.676                             : en:01:34:00.676
 01:39:35.969                             : en:01:39:35.969
咲 -Saki- 劇場版 Saki.2017.1080p.BluRay.x264.DTS-WiKi 7.95G.torrent
douglas
精灵王
精灵王
  • 注册日期2015-08-06
  • 发帖数641
  • 影币0枚
  • 魔力值859点
  • 蓝光币0克拉
  • 忠实会员
沙发#
发布于:2017-07-16 10:33
感謝分享
douglas
精灵王
精灵王
  • 注册日期2015-08-06
  • 发帖数641
  • 影币0枚
  • 魔力值859点
  • 蓝光币0克拉
  • 忠实会员
板凳#
发布于:2017-07-16 10:33
感謝分享! ~
gty6122
精灵王
精灵王
  • 注册日期2015-08-03
  • 发帖数1098
  • 影币435枚
  • 魔力值1335点
  • 蓝光币0克拉
  • 最爱沙发
  • 忠实会员
地板#
发布于:2017-07-16 11:15
咲 -Saki- 劇場版 Saki.2017.720p.BluRay.x264-WiKi
3Q~~~~~~
wwjqlz
骑士
骑士
  • 注册日期2016-06-06
  • 发帖数39
  • 影币212枚
  • 魔力值408点
  • 蓝光币0克拉
  • 社区居民
  • 忠实会员
4楼#
发布于:2017-07-16 12:06
路过看看
jclovehome
圣骑士
圣骑士
  • 注册日期2016-12-23
  • 发帖数387
  • 影币250枚
  • 魔力值370点
  • 蓝光币0克拉
  • 社区居民
  • 忠实会员
5楼#
发布于:2017-07-16 14:56
谢谢分享了
liuejiu
骑士
骑士
  • 注册日期2015-12-14
  • 发帖数138
  • 影币0枚
  • 魔力值242点
  • 蓝光币0克拉
6楼#
发布于:2017-07-16 19:27
感謝分享
liuejiu
骑士
骑士
  • 注册日期2015-12-14
  • 发帖数138
  • 影币0枚
  • 魔力值242点
  • 蓝光币0克拉
7楼#
发布于:2017-07-16 19:27
感謝分享
vin
vin
侠客
侠客
  • 注册日期2016-05-01
  • 发帖数164
  • 影币116枚
  • 魔力值107点
  • 蓝光币0克拉
8楼#
发布于:2017-07-17 21:13
感谢楼主分享
hxy
hxy
骑士
骑士
  • 注册日期2016-12-04
  • 发帖数50
  • 影币1枚
  • 魔力值279点
  • 蓝光币0克拉
9楼#
发布于:2017-07-19 00:43
感谢楼主分享
quake2009
骑士
骑士
  • 注册日期2017-01-07
  • 发帖数302
  • 影币94枚
  • 魔力值203点
  • 蓝光币0克拉
  • 社区居民
10楼#
发布于:2017-07-25 08:28
感谢分享
bbccnnn
侠客
侠客
  • 注册日期2017-01-01
  • 发帖数60
  • 影币40枚
  • 魔力值88点
  • 蓝光币0克拉
11楼#
发布于:2017-08-15 11:38
剧场版竟然是真人演出啊。。。
游客
返回顶部