sww
sww
论坛版主
论坛版主
  • 注册日期2015-12-13
  • 发帖数1090
  • 影币22360枚
  • 魔力值1215点
  • 蓝光币0克拉
  • 社区居民
  • 最爱沙发
  • 忠实会员
  • 喜欢达人
  • 原创写手
阅读:1475回复:42

[动画]猫和老鼠:查理和巧克力工厂 Tom.and.Jerry.Willy.Wonka.and.the.Chocolate.Factory.2017.1080p.WEB-DL.DD5.1.H264-FGT 3.02G

楼主#
更多 发布于:2017-07-16 10:04



【中文片名】: 猫和老鼠:查理和巧克力工厂  
【片名】: Tom and Jerry: Willy Wonka and the Chocolate Factory
【又名】: 猫和老鼠:查理与巧克力工厂
【国家】: 美国
【影片类型】: 冒险 / 喜剧 / 动画
【影片年代】: 2017
【导演】: Spike Brandt
【编剧】: 罗尔德·达尔 Roald Dahl,Gene Grillo
【主演】: 罗里·艾伦 Lori Alan,杰夫·伯格曼 Jeff Bergman,克兰西·布朗 Clancy Brown,杰斯·哈梅尔 Jess Harnell,理查德·麦克格纳格尔 Richard McGonagle,林肯·梅尔彻 Lincoln Melcher,艾米丽·奥布莱恩 Emily O'Brien,格雷格·埃利斯 Greg Ellis,凯特·索西 Kath Soucie,Spike Brandt,Rachel Butera,Kate Higgins,JP Karliak,Dallas Lovato,Sean Schemmel
【时长】: 79分钟
【上映时间】: 2017-06-27(美国)
【imdb】: tt6803390
【评分】: imdb 5.3 豆瓣0.0


影片简介


汤姆和杰瑞又回来啦!全新动画电影[猫和老鼠:查理和巧克力工厂]释出海报和全新剧照。汤姆和杰瑞将陪伴男孩查理进入奇妙的巧克力工厂,共度一段不可思议的冒险。狗狗斯派克和泰克、杰瑞收养的小灰鼠泰菲也将出镜。本作将于7月11日DVD发售,6月27日有线播出。


预告片和图片


MediaInfo
 Video
 ID                                       : 1
 Format                                   : AVC
 Format/Info                              : Advanced Video Codec
 Format profile                           : High@L4
 Format settings, CABAC                   : Yes
 Format settings, ReFrames                : 4 frames
 Codec ID                                 : V_MPEG4/ISO/AVC
 Duration                                 : 1 h 19 min
 Bit rate                                 : 4 960 kb/s
 Width                                    : 1 912 pixels
 Height                                   : 1 072 pixels
 Display aspect ratio                     : 16:9
 Frame rate mode                          : Constant
 Frame rate                               : 23.976 (24000/1001) FPS
 Color space                              : YUV
 Chroma subsampling                       : 4:2:0
 Bit depth                                : 8 bits
 Scan type                                : Progressive
 Bits/(Pixel*Frame)                       : 0.101
 Stream size                              : 2.75 GiB (91%)
 Title                                    : Tom.and.Jerry.Willy.Wonka.and.the.Chocolate.Factory.2017.1080p.WEB-DL.DD5.1.H264-FGT
 Language                                 : English
 Default                                  : Yes
 Forced                                   : No
 Color range                              : Limited
 Color primaries                          : BT.709
 Transfer characteristics                 : BT.709
 Matrix coefficients                      : BT.709

 Audio
 ID                                       : 2
 Format                                   : AC-3
 Format/Info                              : Audio Coding 3
 Format settings, Endianness              : Big
 Codec ID                                 : A_AC3
 Duration                                 : 1 h 19 min
 Bit rate mode                            : Constant
 Bit rate                                 : 384 kb/s
 Channel(s)                               : 6 channels
 Channel positions                        : Front: L C R, Side: L R, LFE
 Sampling rate                            : 48.0 kHz
 Frame rate                               : 31.250 FPS (1536 spf)
 Bit depth                                : 16 bits
 Compression mode                         : Lossy
 Delay relative to video                  : -42 ms
 Stream size                              : 218 MiB (7%)
 Title                                    : Tom.and.Jerry.Willy.Wonka.and.the.Chocolate.Factory.2017.1080p.WEB-DL.DD5.1.H264-FGT
 Language                                 : English
 Service kind                             : Complete Main
 Default                                  : Yes
 Forced                                   : No

 Text
 ID                                       : 3
 Format                                   : UTF-8
 Codec ID                                 : S_TEXT/UTF8
 Codec ID/Info                            : UTF-8 Plain Text
 Language                                 : English
 Default                                  : Yes
 Forced                                   : No

 Menu
 00:00:00.000                             : en:1
 00:11:34.000                             : en:2
 00:21:18.000                             : en:3
 00:36:20.000                             : en:4
 00:54:18.000                             : en:5
 01:10:23.000                             : en:6
猫和老鼠:查理和巧克力工厂 Tom.and.Jerry.Willy.Wonka.and.the.Chocolate.Factory.2017.1080p.WEB-DL.DD5.1.H264-FGT 3.02G.torrent

最新喜欢:

savageyusavage...
me123
骑士
骑士
  • 注册日期2016-12-27
  • 发帖数128
  • 影币43枚
  • 魔力值401点
  • 蓝光币0克拉
  • 社区居民
  • 忠实会员
沙发#
发布于:2017-07-16 10:10
到处都要影币  我等穷人咋活啊
heihei121
侠客
侠客
  • 注册日期2017-02-23
  • 发帖数22
  • 影币0枚
  • 魔力值78点
  • 蓝光币0克拉
板凳#
发布于:2017-07-16 10:33
谢谢~~~~~
heihei121
侠客
侠客
  • 注册日期2017-02-23
  • 发帖数22
  • 影币0枚
  • 魔力值78点
  • 蓝光币0克拉
地板#
发布于:2017-07-16 10:33
谢谢~~~~~
douglas
精灵王
精灵王
  • 注册日期2015-08-06
  • 发帖数641
  • 影币0枚
  • 魔力值859点
  • 蓝光币0克拉
  • 忠实会员
4楼#
发布于:2017-07-16 10:34
感謝分享! ^
douglas
精灵王
精灵王
  • 注册日期2015-08-06
  • 发帖数641
  • 影币0枚
  • 魔力值859点
  • 蓝光币0克拉
  • 忠实会员
5楼#
发布于:2017-07-16 10:35
感謝分享!^^
wwjqlz
骑士
骑士
  • 注册日期2016-06-06
  • 发帖数39
  • 影币212枚
  • 魔力值408点
  • 蓝光币0克拉
  • 社区居民
  • 忠实会员
6楼#
发布于:2017-07-16 11:29
楼主辛苦了!
wow77880
骑士
骑士
  • 注册日期2015-08-06
  • 发帖数66
  • 影币84枚
  • 魔力值315点
  • 蓝光币0克拉
  • 社区居民
  • 忠实会员
7楼#
发布于:2017-07-16 12:03
感谢分享!!!
wwjqlz
骑士
骑士
  • 注册日期2016-06-06
  • 发帖数39
  • 影币212枚
  • 魔力值408点
  • 蓝光币0克拉
  • 社区居民
  • 忠实会员
8楼#
发布于:2017-07-16 12:05
有中文字幕就好了!
zxykk88
骑士
骑士
  • 注册日期2016-12-04
  • 发帖数53
  • 影币43枚
  • 魔力值382点
  • 蓝光币0克拉
  • 社区居民
  • 忠实会员
9楼#
发布于:2017-07-16 12:12
搞笑猫鼠来咯,看看怎么样O(∩_∩)O~
航线ing
侠客
侠客
  • 注册日期2017-07-03
  • 发帖数129
  • 影币150枚
  • 魔力值67点
  • 蓝光币0克拉
  • 社区居民
  • 忠实会员
  • 追星一族
10楼#
发布于:2017-07-16 12:22
感謝分享! ^
航线ing
侠客
侠客
  • 注册日期2017-07-03
  • 发帖数129
  • 影币150枚
  • 魔力值67点
  • 蓝光币0克拉
  • 社区居民
  • 忠实会员
  • 追星一族
11楼#
发布于:2017-07-16 12:23
感謝分享! ^
惊亦秋
圣骑士
圣骑士
  • 注册日期2015-07-28
  • 发帖数163
  • 影币194枚
  • 魔力值768点
  • 蓝光币0克拉
12楼#
发布于:2017-07-16 13:37
今年还有更新呀,真的感谢至极,希望有字幕也一并拿出来。
firebd2012
骑士
骑士
  • 注册日期2016-06-16
  • 发帖数46
  • 影币9枚
  • 魔力值419点
  • 蓝光币0克拉
  • 社区居民
  • 忠实会员
13楼#
发布于:2017-07-16 14:32
第一次看高清版的猫和老鼠
jclovehome
圣骑士
圣骑士
  • 注册日期2016-12-23
  • 发帖数387
  • 影币250枚
  • 魔力值370点
  • 蓝光币0克拉
  • 社区居民
  • 忠实会员
14楼#
发布于:2017-07-16 14:56
谢谢分享了
上一页
游客
返回顶部