sww
sww
论坛版主
论坛版主
  • 注册日期2015-12-13
  • 发帖数1204
  • 影币24371枚
  • 魔力值1335点
  • 蓝光币72克拉
  • 社区居民
  • 最爱沙发
  • 忠实会员
  • 喜欢达人
  • 原创写手
阅读:1076回复:4

[惊悚]魂断无人机 Drone.2017.1080p.BluRay.REMUX.AVC.DTS-HD.MA.5.1-FGT 21.42G

楼主#
更多 发布于:2017-07-18 10:29



【中文片名】: 魂断无人机  
【片名】: Drone
【又名】: Incursion
【国家】: 加拿大
【影片类型】: 惊悚
【影片年代】: 2017
【导演】: 杰森·伯格 Jason Bourque
【编剧】: 杰森·伯格 Jason Bourque,Paul A. Birkett
【主演】: 肖恩·宾 Sean Bean,Patrick Sanogui,玛丽·麦克科马克 Mary McCormack,乔·大卫·摩尔 Joel David Moore
【时长】:  
【上映时间】: 2017-04-17(温哥华限制上映),2017-05-26(美国)
【imdb】: tt5352846
【评分】: imdb 5.3  豆瓣0.0


影片简介


Bean plays a private drone contractor who spends his workdays flying covert missions then returns to a family life of suburban mediocrity — without his wife or son knowing about his secret life — until a whistle-blowing site exposes him to a deadly threat. Believing he is responsible for the deaths of his wife and child, an enigmatic Pakistani businessman (Sabongui) tracks him down, leading to a harrowing confrontation.


预告片和图片
Screens:

MediaInfo
 Video
 ID                                       : 1
 Format                                   : AVC
 Format/Info                              : Advanced Video Codec
 Format profile                           : High@L4.1
 Format settings, CABAC                   : Yes
 Format settings, ReFrames                : 4 frames
 Codec ID                                 : V_MPEG4/ISO/AVC
 Duration                                 : 1 h 29 min
 Bit rate mode                            : Variable
 Maximum bit rate                         : 38.0 Mb/s
 Width                                    : 1 920 pixels
 Height                                   : 1 080 pixels
 Display aspect ratio                     : 16:9
 Frame rate mode                          : Constant
 Frame rate                               : 23.976 (24000/1001) FPS
 Color space                              : YUV
 Chroma subsampling                       : 4:2:0
 Bit depth                                : 8 bits
 Scan type                                : Progressive
 Title                                    : Drone.2017.1080p.BluRay.REMUX.AVC.DTS-HD.MA.5.1-FGT
 Language                                 : English
 Default                                  : No
 Forced                                   : No

 Audio #1
 ID                                       : 2
 Format                                   : DTS
 Format/Info                              : Digital Theater Systems
 Format profile                           : MA / Core
 Mode                                     : 16
 Format settings, Endianness              : Big
 Codec ID                                 : A_DTS
 Duration                                 : 1 h 29 min
 Bit rate mode                            : Variable / Constant
 Bit rate                                 : Unknown / 1 509 kb/s
 Channel(s)                               : 6 channels
 Channel positions                        : Front: L C R, Side: L R, LFE
 Sampling rate                            : 48.0 kHz
 Frame rate                               : 93.750 FPS (512 spf)
 Bit depth                                : 16 bits
 Compression mode                         : Lossless / Lossy
 Title                                    : Drone.2017.1080p.BluRay.REMUX.AVC.DTS-HD.MA.5.1-FGT
 Language                                 : English
 Default                                  : Yes
 Forced                                   : No

 Audio #2
 ID                                       : 3
 Format                                   : DTS
 Format/Info                              : Digital Theater Systems
 Mode                                     : 16
 Format settings, Endianness              : Big
 Codec ID                                 : A_DTS
 Duration                                 : 1 h 29 min
 Bit rate mode                            : Constant
 Bit rate                                 : 1 509 kb/s
 Channel(s)                               : 6 channels
 Channel positions                        : Front: L C R, Side: L R, LFE
 Sampling rate                            : 48.0 kHz
 Frame rate                               : 93.750 FPS (512 spf)
 Bit depth                                : 16 bits
 Compression mode                         : Lossy
 Stream size                              : 967 MiB (4%)
 Title                                    : Drone.2017.1080p.BluRay.REMUX.AVC.DTS-HD.MA.5.1-FGT
 Language                                 : English
 Default                                  : No
 Forced                                   : No

 Audio #3
 ID                                       : 4
 Format                                   : DTS
 Format/Info                              : Digital Theater Systems
 Format profile                           : MA / Core
 Mode                                     : 16
 Format settings, Endianness              : Big
 Codec ID                                 : A_DTS
 Duration                                 : 1 h 29 min
 Bit rate mode                            : Variable / Constant
 Bit rate                                 : Unknown / 768 kb/s
 Channel(s)                               : 2 channels
 Channel positions                        :  / Front: L R
 Sampling rate                            : 48.0 kHz
 Frame rate                               : 93.750 FPS (512 spf)
 Bit depth                                : 16 bits
 Compression mode                         : Lossless / Lossy
 Title                                    : Drone.2017.1080p.BluRay.REMUX.AVC.DTS-HD.MA.5.1-FGT
 Language                                 : English
 Default                                  : No
 Forced                                   : No

 Audio #4
 ID                                       : 5
 Format                                   : DTS
 Format/Info                              : Digital Theater Systems
 Mode                                     : 16
 Format settings, Endianness              : Big
 Codec ID                                 : A_DTS
 Duration                                 : 1 h 29 min
 Bit rate mode                            : Constant
 Bit rate                                 : 768 kb/s
 Channel(s)                               : 2 channels
 Channel positions                        : Front: L R
 Sampling rate                            : 48.0 kHz
 Frame rate                               : 93.750 FPS (512 spf)
 Bit depth                                : 16 bits
 Compression mode                         : Lossy
 Stream size                              : 492 MiB (2%)
 Title                                    : Drone.2017.1080p.BluRay.REMUX.AVC.DTS-HD.MA.5.1-FGT
 Language                                 : English
 Default                                  : No
 Forced                                   : No

 Text
 ID                                       : 6
 Format                                   : PGS
 Muxing mode                              : zlib
 Codec ID                                 : S_HDMV/PGS
 Codec ID/Info                            : Picture based subtitle format used on BDs/HD-DVDs
 Title                                    : English-PGS
 Language                                 : English
 Default                                  : Yes
 Forced                                   : No

 Menu
 00:00:00.000                             : en:Chapter 01
 00:03:55.944                             : en:Chapter 02
 00:10:40.306                             : en:Chapter 03
 00:19:25.873                             : en:Chapter 04
 00:23:25.320                             : en:Chapter 05
 00:33:03.940                             : en:Chapter 06
 00:40:15.121                             : en:Chapter 07
 00:50:32.863                             : en:Chapter 08
 00:59:38.199                             : en:Chapter 09
 01:10:28.390                             : en:Chapter 10
 01:19:30.223                             : en:Chapter 11
 01:26:26.181                             : en:Chapter 12
魂断无人机 Drone.2017.1080p.BluRay.REMUX.AVC.DTS-HD.MA.5.1-FGT 21.42G.torrent
496052739
骑士
骑士
  • 注册日期2017-02-06
  • 发帖数239
  • 影币450枚
  • 魔力值311点
  • 蓝光币34克拉
  • 社区居民
  • 忠实会员
沙发#
发布于:2017-07-18 10:53
没有钱,泪汪汪!
不知何时能如偿!
zjm123
圣骑士
圣骑士
  • 注册日期2016-08-14
  • 发帖数539
  • 影币288枚
  • 魔力值314点
  • 蓝光币67克拉
  • 社区居民
  • 忠实会员
板凳#
发布于:2017-07-29 15:42
下载不了,下载不了
lxh0
侠客
侠客
  • 注册日期2016-02-02
  • 发帖数46
  • 影币1枚
  • 魔力值251点
  • 蓝光币0克拉
  • 社区居民
地板#
发布于:2017-09-11 01:03
感谢楼主分享
zdx820513
侠客
侠客
  • 注册日期2016-07-18
  • 发帖数134
  • 影币128枚
  • 魔力值68点
  • 蓝光币100克拉
4楼#
发布于:2017-09-28 03:50
谢谢楼主分享
游客
返回顶部