sww
sww
论坛版主
论坛版主
  • 注册日期2015-12-13
  • 发帖数1090
  • 影币22360枚
  • 魔力值1215点
  • 蓝光币0克拉
  • 社区居民
  • 最爱沙发
  • 忠实会员
  • 喜欢达人
  • 原创写手
阅读:1408回复:30

[动作]反恐特警组:潜龙突围 [内嵌繁体中文字幕] S.W.A.T.Under.Siege.2017.BluRay.1080p.DTS.x264-CHD 8.23 GiB

楼主#
更多 发布于:2017-07-21 20:10



◎译  名 反恐特警组:潜龙突围
 ◎片  名 S.W.A.T.: Under Siege
 ◎年  代 2017
 ◎国  家 美国
 ◎类  别 动作
 ◎语  言 英语
 ◎字  幕 繁体中文
 ◎IMDb评分  N/A
 ◎IMDb链接 http://www.imdb.com/title/tt6014472
 ◎文件格式 x264 + DTS
 ◎视频尺寸 1920x1080
 ◎文件大小 8.23 GiB
 ◎片  长 1 h 29 min
 ◎导  演 托尼·基格里奥 Tony Giglio
 ◎主  演 山姆·贾格 Sam Jaeger
 阿德琳妮·帕里奇 Adrianne Palicki
 迈克尔·加·怀特 Michael Jai White
 帕斯卡尔·休顿 Pascale Hutton
 泰·奥尔森 Ty Olsson
 莫妮卡·甘德顿 Monique Ganderton
 凯拉·扎戈尔斯基 Kyra Zagorsky
 郑启蕙 Olivia Cheng
 马修·马斯登 Matthew Marsden
 麦克·多普德 Mike Dopud
 玛尔奇 T. 豪斯 Marci T. House
 扎夫·帕鲁 Zahf Paroo

 ◎简  介

 A SWAT compound comes under fire from an international terrorist who relentlessly and violently pursues a mystery man who was apprehended by Seattle SWAT after a raid went horribly wrong.
  1. Complete name : S.W.A.T.Under.Siege.2017.BluRay.1080p.DTS.x264-CHD.mkv
  2. Format : Matroska
  3. Format version : Version 4 / Version 2
  4. File size : 8.23 GiB
  5. Duration : 1 h 29 min
  6. Overall bit rate : 13.2 Mb/s
  7. Encoded date : UTC 2017-07-19 00:54:25
  8. Writing application : mkvmerge v10.0.0 ('To Drown In You') 64bit
  9. Writing library : libebml v1.3.4 + libmatroska v1.4.5
  10. Video
  11. ID : 1
  12. Format : AVC
  13. Format/Info : Advanced Video Codec
  14. Format profile : High@L4.1
  15. Format settings, CABAC : Yes
  16. Format settings, ReFrames : 4 frames
  17. Codec ID : V_MPEG4/ISO/AVC
  18. Duration : 1 h 29 min
  19. Bit rate : 11.7 Mb/s
  20. Width : 1 920 pixels
  21. Height : 1 080 pixels
  22. Display aspect ratio : 16:9
  23. Frame rate mode : Constant
  24. Frame rate : 23.976 (24000/1001) FPS
  25. Color space : YUV
  26. Chroma subsampling : 4:2:0
  27. Bit depth : 8 bits
  28. Scan type : Progressive
  29. Bits/(Pixel*Frame) : 0.236
  30. Stream size : 7.28 GiB (88%)
  31. Writing library : x264 core 149 r2771+45 509cceb 7mod [8-bit@all X86_64]
  32. Encoding settings : cabac=1 / ref=4 / deblock=1:-3:-3 / analyse=0x3:0x113 / me=umh / subme=10 / psy=1 / fade_compensate=0.00 / psy_rd=0.90:0.10 / mixed_ref=1 / me_range=48 / chroma_me=1 / trellis=2 / 8x8dct=1 / cqm=0 / deadzone=21,11 / fast_pskip=0 / chroma_qp_offset=-2 / threads=12 / lookahead_threads=2 / sliced_threads=0 / nr=0 / decimate=1 / interlaced=0 / bluray_compat=0 / constrained_intra=0 / fgo=0 / bframes=8 / b_pyramid=2 / b_adapt=2 / b_bias=0 / direct=3 / weightb=1 / open_gop=0 / weightp=2 / keyint=250 / keyint_min=23 / scenecut=40 / intra_refresh=0 / rc_lookahead=40 / rc=crf / mbtree=0 / crf=21.0000 / qcomp=0.70 / qpmin=0:0:0 / qpmax=69:69:69 / qpstep=4 / vbv_maxrate=35000 / vbv_bufsize=35000 / crf_max=0.0 / nal_hrd=none / filler=0 / ip_ratio=1.40 / pb_ratio=1.30 / aq=3:1.00 / aq-sensitivity=10.00 / aq-factor=1.00:1.00:1.00 / aq2=0 / aq3=2:[0.50:0.50]:[0.50:0.50]:[0.50:0.50]:[0.50:0.50] / aq3-sensitivity=10.00 / aq3-factor=[1.00:1.00]:[1.00:1.00]:[1.00:1.00] / aq3-boundary=192:64:24
  33. Language : English
  34. Default : Yes
  35. Forced : No
  36. Color range : Limited
  37. Matrix coefficients : BT.709
  38. Audio
  39. ID : 2
  40. Format : DTS
  41. Format/Info : Digital Theater Systems
  42. Mode : 16
  43. Format settings, Endianness : Big
  44. Codec ID : A_DTS
  45. Duration : 1 h 29 min
  46. Bit rate mode : Constant
  47. Bit rate : 1 509 kb/s
  48. Channel(s) : 6 channels
  49. Channel positions : Front: L C R, Side: L R, LFE
  50. Sampling rate : 48.0 kHz
  51. Frame rate : 93.750 FPS (512 spf)
  52. Bit depth : 24 bits
  53. Compression mode : Lossy
  54. Stream size : 961 MiB (11%)
  55. Language : English
  56. Default : Yes
  57. Forced : No
  58. Text
  59. ID : 3
  60. Format : PGS
  61. Muxing mode : zlib
  62. Codec ID : S_HDMV/PGS
  63. Codec ID/Info : Picture based subtitle format used on BDs/HD-DVDs
  64. Duration : 1 h 27 min
  65. Bit rate : 16.0 kb/s
  66. Count of elements : 2029
  67. Stream size : 10.0 MiB (0%)
  68. Language : Chinese
  69. Default : Yes
  70. Forced : No

反恐特警组:潜龙突围 [内嵌繁体中文字幕] S.W.A.T.Under.Siege.2017.BluRay.1080p.DTS.x264-CHD 8.23 GiB.torrent
吴振华
新手
新手
  • 注册日期2017-04-28
  • 发帖数20
  • 影币2枚
  • 魔力值72点
  • 蓝光币0克拉
  • 社区居民
沙发#
发布于:2017-07-21 20:25
我想下载
吴振华
新手
新手
  • 注册日期2017-04-28
  • 发帖数20
  • 影币2枚
  • 魔力值72点
  • 蓝光币0克拉
  • 社区居民
板凳#
发布于:2017-07-21 20:25
我想下载
mike0126
侠客
侠客
  • 注册日期2017-06-04
  • 发帖数3
  • 影币6枚
  • 魔力值117点
  • 蓝光币0克拉
  • 社区居民
  • 忠实会员
地板#
发布于:2017-07-21 20:54
!!!!!!
yusuzuki
侠客
侠客
  • 注册日期2016-12-22
  • 发帖数68
  • 影币0枚
  • 魔力值117点
  • 蓝光币0克拉
4楼#
发布于:2017-07-21 21:01
反恐特警组:潜龙突围
yusuzuki
侠客
侠客
  • 注册日期2016-12-22
  • 发帖数68
  • 影币0枚
  • 魔力值117点
  • 蓝光币0克拉
5楼#
发布于:2017-07-21 21:02
反恐特警组:潜龙突围
ayog
圣骑士
圣骑士
  • 注册日期2015-08-21
  • 发帖数82
  • 影币1枚
  • 魔力值602点
  • 蓝光币0克拉
  • 社区居民
  • 忠实会员
6楼#
发布于:2017-07-21 21:33
反恐特警组:潜龙突围 [内嵌繁体中文字幕] S.W.A.T.Under.Siege.2017.BluRay.1080p.DTS.x264-CHD 8.23 GiB
sd201516
圣骑士
圣骑士
  • 注册日期2015-09-27
  • 发帖数153
  • 影币0枚
  • 魔力值521点
  • 蓝光币0克拉
  • 社区居民
  • 忠实会员
7楼#
发布于:2017-07-21 21:53
thanks ....
xuspace
侠客
侠客
  • 注册日期2015-09-30
  • 发帖数16
  • 影币3枚
  • 魔力值123点
  • 蓝光币0克拉
8楼#
发布于:2017-07-21 21:58
反恐特警组:潜龙突围 [内嵌繁体中
54931325
骑士
骑士
  • 注册日期2016-03-04
  • 发帖数112
  • 影币5枚
  • 魔力值366点
  • 蓝光币0克拉
9楼#
发布于:2017-07-21 22:12
收下了谢谢
航线ing
侠客
侠客
  • 注册日期2017-07-03
  • 发帖数129
  • 影币150枚
  • 魔力值67点
  • 蓝光币0克拉
  • 社区居民
  • 忠实会员
  • 追星一族
10楼#
发布于:2017-07-22 01:13
谢谢楼主分享!
liguochuan
精灵王
精灵王
  • 注册日期2015-10-03
  • 发帖数555
  • 影币2362枚
  • 魔力值1088点
  • 蓝光币0克拉
  • 社区居民
  • 忠实会员
11楼#
发布于:2017-07-22 06:43
不错的影片
fycx
骑士
骑士
  • 注册日期2016-10-01
  • 发帖数100
  • 影币31枚
  • 魔力值216点
  • 蓝光币0克拉
  • 社区居民
12楼#
发布于:2017-07-22 10:11
谢谢楼主分享!
alfonso2004
新手
新手
  • 注册日期2016-07-29
  • 发帖数36
  • 影币40枚
  • 魔力值50点
  • 蓝光币0克拉
13楼#
发布于:2017-07-22 11:57
谢谢分享。
laybouname
骑士
骑士
  • 注册日期2016-12-03
  • 发帖数37
  • 影币579枚
  • 魔力值448点
  • 蓝光币0克拉
  • 社区居民
  • 忠实会员
14楼#
发布于:2017-07-22 19:01
thanks a lot
上一页
游客
返回顶部