smy
smy
总版主
总版主
  • 注册日期2015-07-27
  • 发帖数1427
  • 影币67657枚
  • 魔力值2299点
  • 蓝光币1克拉
  • 社区居民
  • 忠实会员
  • 喜欢达人
  • 原创写手
阅读:10245回复:244

[SeeHD原创首发]逆时营救/致命倒数【杨幂、霍建华】 Fatal Countdown Reset 2017 4K 2160p WEB-DL x264 AAC-SmY 中文(内嵌)4.0G

楼主#
更多 发布于:2017-07-30 00:22





◎译  名 致命倒数
◎片  名 逆时营救 / Fatal Countdown: Reset / Reset
◎年  代 2017
◎产  地 中国大陆
◎类  别 动作/科幻
◎语  言 汉语普通话
◎上映日期 2017-06-19(上海电影节)/2017-06-29(中国大陆)
◎IMDb评分  6.2/10 from 69 users
◎IMDb链接  http://www.imdb.com/title/tt5342650/
◎豆瓣评分 5.0/10 from 21,805 users
◎豆瓣链接 https://movie.douban.com/subject/26667056/
◎片  长 106分钟
◎导  演 尹鸿承 Chang
◎主  演 杨幂 Mi Yang
霍建华 Wallace Huo
金士杰 King Shih-Chieh
刘畅 Chang Liu
张艺瀚  Hummer
王俐丹 Lidan Wang


◎简  介


单亲妈妈夏天(杨幂 饰)作为物理研究所的高级研究员,与所长共同研究出可使生物体穿越虫洞进行时间旅行的技术,当研究有了突破性进展时,儿子豆豆(张艺瀚 饰)却被神秘绑匪崔琥(霍建华 饰)绑架,为了挽救豆豆的生命,夏天冒险用未完成的粒子技术 返回1小时50分钟前,却令事情变得更加复杂,更遭遇到意想不到的困局:要去面对三个自己在时空旅行中的变异互博。而崔琥的背后故事也渐渐浮出水面……


◎获奖情况


第20届上海国际电影节  (2017)
电影频道传媒大奖(提名)

General
Format                         : Matroska
Format version                 : Version 4 / Version 2
File size                      : 4.00 GiB
Duration                       : 1h 45mn
Overall bit rate               : 5 417 Kbps
Encoded date                   : UTC 2017-07-29 16:10:14
Writing application            : mkvmerge v7.1.0 ('Good Love') 32bit built on Jul 27 2014 12:59:18
Writing library                : libebml v1.3.0 + libmatroska v1.4.1

Video
ID                             : 1
Format                         : AVC
Format/Info                    : Advanced Video Codec
Format profile                 : High@L5.1
Format settings, CABAC         : Yes
Format settings, ReFrames      : 3 frames
Codec ID                       : V_MPEG4/ISO/AVC
Duration                       : 1h 45mn
Bit rate                       : 5 353 Kbps
Width                          : 3 840 pixels
Height                         : 1 608 pixels
Display aspect ratio           : 2.40:1
Frame rate mode                : Constant
Frame rate                     : 24.000 fps
Color space                    : YUV
Chroma subsampling             : 4:2:0
Bit depth                      : 8 bits
Scan type                      : Progressive
Bits/(Pixel*Frame)             : 0.036
Stream size                    : 3.95 GiB (99%)
Default                        : Yes
Forced                         : No
Color range                    : Limited
Color primaries                : BT.709
Transfer characteristics       : BT.709
Matrix coefficients            : BT.709

Audio
ID                             : 2
Format                         : AAC
Format/Info                    : Advanced Audio Codec
Format profile                 : HE-AAC / LC
Codec ID                       : A_AAC
Duration                       : 1h 45mn
Bit rate                       : 62.9 Kbps
Channel(s)                     : 2 channels
Channel positions              : Front: L R
Sampling rate                  : 44.1 KHz / 22.05 KHz
Frame rate                     : 21.533 fps (1024 spf)
Compression mode               : Lossy
Stream size                    : 47.6 MiB (1%)
Default                        : Yes
Forced                         : No





 


Fatal Countdown Reset 2017 4K 2160p WEB-DL x264 AAC-SmY.torrent
zhen0152016
圣骑士
圣骑士
  • 注册日期2016-09-24
  • 发帖数161
  • 影币264枚
  • 魔力值685点
  • 蓝光币11克拉
沙发#
发布于:2017-07-30 00:42
谢谢分享:逆时营救
cesc2046
新手
新手
  • 注册日期2017-07-29
  • 发帖数10
  • 影币20枚
  • 魔力值32点
  • 蓝光币0克拉
板凳#
发布于:2017-07-30 01:31
谢谢分享。。。。。。。。。
米米米
侠客
侠客
  • 注册日期2017-04-24
  • 发帖数90
  • 影币68枚
  • 魔力值128点
  • 蓝光币1克拉
  • 社区居民
  • 忠实会员
地板#
发布于:2017-07-30 06:27
谢谢分享
k10j
终生无尚荣耀蓝光粉
终生无尚荣耀蓝光粉
  • 注册日期2016-07-26
  • 发帖数143
  • 影币8971枚
  • 魔力值1106点
  • 蓝光币889克拉
  • 社区居民
  • 忠实会员
4楼#
发布于:2017-07-30 06:42
谢谢分享
cgi9220
圣骑士
圣骑士
  • 注册日期2015-08-20
  • 发帖数104
  • 影币2枚
  • 魔力值870点
  • 蓝光币1克拉
  • 社区居民
  • 忠实会员
5楼#
发布于:2017-07-30 07:25
谢谢分享,速度真快啊
sing20
贫民
贫民
  • 注册日期2017-07-30
  • 发帖数3
  • 影币14枚
  • 魔力值2点
  • 蓝光币0克拉
6楼#
发布于:2017-07-30 08:30
感谢分享
bxxuxu
贫民
贫民
  • 注册日期2017-07-30
  • 发帖数5
  • 影币16枚
  • 魔力值2点
  • 蓝光币0克拉
7楼#
发布于:2017-07-30 09:34
hvj'h'v'k'j'b'lb'lhhh揭秘湖南v,jhvvh'k。v'hi'i
bxxuxu
贫民
贫民
  • 注册日期2017-07-30
  • 发帖数5
  • 影币16枚
  • 魔力值2点
  • 蓝光币0克拉
8楼#
发布于:2017-07-30 09:35
和卡 哈哈哈哈哈哈哈
lampc123
圣骑士
圣骑士
  • 注册日期2016-11-30
  • 发帖数307
  • 影币58枚
  • 魔力值618点
  • 蓝光币0克拉
  • 忠实会员
9楼#
发布于:2017-07-30 10:01
谢谢楼主分享
fsn006464
侠客
侠客
  • 注册日期2017-06-08
  • 发帖数52
  • 影币31枚
  • 魔力值128点
  • 蓝光币10克拉
  • 社区居民
  • 忠实会员
10楼#
发布于:2017-07-30 10:17
感谢分享
327941
精灵王
精灵王
  • 注册日期2016-02-27
  • 发帖数90
  • 影币924枚
  • 魔力值1046点
  • 蓝光币0克拉
  • 社区居民
  • 忠实会员
11楼#
发布于:2017-07-30 10:20
谢谢分享,这么快就出来了。
fketg
精灵王
精灵王
  • 注册日期2015-10-01
  • 发帖数105
  • 影币86枚
  • 魔力值897点
  • 蓝光币2克拉
  • 社区居民
  • 忠实会员
12楼#
发布于:2017-07-30 12:53
谢谢分享
青山绿水野王八
禁止发言
禁止发言
  • 注册日期2017-07-21
  • 发帖数17
  • 影币17枚
  • 魔力值10点
  • 蓝光币0克拉
13楼#
发布于:2017-07-30 12:58
用户被禁言,该主题自动屏蔽!
sdykghlxc
侠客
侠客
  • 注册日期2017-01-17
  • 发帖数54
  • 影币38枚
  • 魔力值236点
  • 蓝光币2克拉
14楼#
发布于:2017-07-30 13:20
新片,谢了楼主了。。。。
上一页
游客
返回顶部