sww
sww
论坛版主
论坛版主
  • 注册日期2015-12-13
  • 发帖数1204
  • 影币24371枚
  • 魔力值1335点
  • 蓝光币72克拉
  • 社区居民
  • 最爱沙发
  • 忠实会员
  • 喜欢达人
  • 原创写手
阅读:700回复:8

[剧情]尼羅河女兒 Daughter.Of.The.Nile.1987.1080p.BluRay.x264-GHOULS 6.56 GB

楼主#
更多 发布于:2017-07-30 10:20


【中文片名】:尼羅河女兒
【片名】:尼羅河女兒
【又名】:尼罗河女儿,Daughter of the Nile
【地区】:台湾
【影片类型】:剧情
【影片年代】:1987
【导演】:侯孝贤 Hsiao-hsien Hou
【编剧】:朱天文 Tien-wen Chu
【主演】:杨林,杨帆,高捷 Jack Kao,李天禄 Tianlu Li,崔福生 Fu Sheng Tsui,辛树芬Shufang Chen,吴念真 Nien-Jen Wu
【时长】:91分钟
【上映时间】:1987-08-22(台湾)
【imdb】:tt0093633
【评分】:IMDB6.9 豆瓣7.1
影片简介
少女林晓阳(杨林 饰)爱看漫画,常幻想自己是细川智荣子少女漫画《尼罗河女儿》主角。她生活在繁华的台北,白天在肯德基当店员,晚上在夜校读书。晓阳与家人住在一座简陋的平房里,祖父(李天禄 饰)是个风趣的老头。父亲(崔福生 饰)在嘉义当员警,常年在外执勤。母亲去世后,晓阳肩负起母亲的职责,照顾上了年纪的父亲及上学的妹妹,并整天为哥哥担心。 哥哥(高捷 饰)与朋友合开一家餐厅,白天工作,晚上当小偷,却能照顾到家人。父亲和哥哥爆发冲突时,晓阳总是站在哥哥一边。她暗恋上哥哥的朋友阿三,却不知阿三爱着别人。种种事实让她感到气愤、悲伤和绝望,并在遭受打击后成熟清醒。


预告片和图片
Screenshots:

MediaInfo
 Video
 ID                                       : 2
 Format                                   : AVC
 Format/Info                              : Advanced Video Codec
 Format profile                           : High@L4.1
 Format settings, CABAC                   : Yes
 Format settings, ReFrames                : 4 frames
 Codec ID                                 : V_MPEG4/ISO/AVC
 Duration                                 : 1h 32mn
 Bit rate                                 : 9 483 Kbps
 Width                                    : 1 920 pixels
 Height                                   : 1 040 pixels
 Display aspect ratio                     : 1.85:1
 Frame rate mode                          : Constant
 Frame rate                               : 23.976 (24000/1001) fps
 Color space                              : YUV
 Chroma subsampling                       : 4:2:0
 Bit depth                                : 8 bits
 Scan type                                : Progressive
 Bits/(Pixel*Frame)                       : 0.198
 Stream size                              : 6.01 GiB (92%)
 Writing library                          : x264 core 152 r2851kMod ba24899
 Encoding settings                        : cabac=1 / ref=4 / deblock=1:-3:-3 / analyse=0x3:0x133 / me=umh / subme=8 / psy=1 / fade_compensate=0.00 / psy_rd=1.00:0.00 / mixed_ref=1 / me_range=16 / chroma_me=1 / trellis=1 / 8x8dct=1 / cqm=0 / deadzone=21,11 / fast_pskip=0 / chroma_qp_offset=-2 / threads=6 / lookahead_threads=1 / sliced_threads=0 / nr=0 / decimate=1 / interlaced=0 / bluray_compat=0 / constrained_intra=0 / bframes=3 / b_pyramid=2 / b_adapt=1 / b_bias=0 / direct=3 / weightb=1 / open_gop=0 / weightp=2 / keyint=250 / keyint_min=23 / scenecut=40 / intra_refresh=0 / rc_lookahead=50 / rc=2pass / mbtree=1 / bitrate=9483 / ratetol=1.0 / qcomp=0.60 / qpmin=0 / qpmax=69 / qpstep=4 / cplxblur=20.0 / qblur=0.5 / vbv_maxrate=62500 / vbv_bufsize=78125 / nal_hrd=none / filler=0 / ip_ratio=1.40 / aq=1:1.00
 Default                                  : Yes
 Forced                                   : No

 Audio
 ID                                       : 3
 Format                                   : AC-3
 Format/Info                              : Audio Coding 3
 Mode extension                           : CM (complete main)
 Format settings, Endianness              : Big
 Codec ID                                 : A_AC3
 Duration                                 : 1h 32mn
 Bit rate mode                            : Constant
 Bit rate                                 : 640 Kbps
 Channel(s)                               : 1 channel
 Channel positions                        : Front: C
 Sampling rate                            : 48.0 KHz
 Frame rate                               : 31.250 fps (1536 spf)
 Compression mode                         : Lossy
 Stream size                              : 425 MiB (6%)
 Language                                 : Chinese
 Default                                  : Yes
 Forced                                   : No

 Text
 ID                                       : 1
 Format                                   : UTF-8
 Codec ID                                 : S_TEXT/UTF8
 Codec ID/Info                            : UTF-8 Plain Text
 Language                                 : English
 Default                                  : Yes
 Forced                                   : No

 Menu
 00:00:00.000                             : en:00:00:00.000
 00:09:32.614                             : en:00:09:32.614
 00:19:50.398                             : en:00:19:50.398
 00:27:39.783                             : en:00:27:39.783
 00:36:08.583                             : en:00:36:08.583
 00:48:39.166                             : en:00:48:39.166
 00:57:37.829                             : en:00:57:37.829
 01:06:23.354                             : en:01:06:23.354
 01:14:53.322                             : en:01:14:53.322
 01:22:28.986                             : en:01:22:28.986

尼羅河女兒 Daughter.Of.The.Nile.1987.1080p.BluRay.x264-GHOULS 6.56 GB.torrent
simplesimon
精灵王
精灵王
  • 注册日期2015-08-10
  • 发帖数204
  • 影币1枚
  • 魔力值915点
  • 蓝光币3克拉
  • 社区居民
  • 忠实会员
沙发#
发布于:2017-07-30 12:02
侯孝贤的都是不错,谢谢分享。
alexcao247
圣骑士
圣骑士
  • 注册日期2016-04-27
  • 发帖数47
  • 影币0枚
  • 魔力值657点
  • 蓝光币0克拉
板凳#
发布于:2017-08-01 08:55
感谢分享了,不错
alexcao247
圣骑士
圣骑士
  • 注册日期2016-04-27
  • 发帖数47
  • 影币0枚
  • 魔力值657点
  • 蓝光币0克拉
地板#
发布于:2017-08-01 08:55
最喜欢侯大师的作品了
jackjar
侠客
侠客
  • 注册日期2017-06-05
  • 发帖数109
  • 影币89枚
  • 魔力值86点
  • 蓝光币26克拉
  • 社区居民
4楼#
发布于:2017-08-01 11:16
侯孝贤的作品
幽谷清客
圣骑士
圣骑士
  • 注册日期2016-11-29
  • 发帖数217
  • 影币19枚
  • 魔力值418点
  • 蓝光币0克拉
  • 社区居民
  • 忠实会员
5楼#
发布于:2017-08-01 12:45
挺经典的一部电影,多谢楼主了。
asd123123
侠客
侠客
  • 注册日期2017-04-17
  • 发帖数78
  • 影币64枚
  • 魔力值47点
  • 蓝光币29克拉
  • 社区居民
6楼#
发布于:2017-08-01 13:02
谢谢分享
douglas
精灵王
精灵王
  • 注册日期2015-08-06
  • 发帖数655
  • 影币0枚
  • 魔力值875点
  • 蓝光币0克拉
  • 忠实会员
7楼#
发布于:2017-08-03 21:13
感謝分享
douglas
精灵王
精灵王
  • 注册日期2015-08-06
  • 发帖数655
  • 影币0枚
  • 魔力值875点
  • 蓝光币0克拉
  • 忠实会员
8楼#
发布于:2017-08-03 21:13
感謝分享!!
游客
返回顶部