gananicus
管理员
管理员
  • 注册日期2015-07-28
  • 发帖数595
  • 影币17545枚
  • 魔力值511点
  • 蓝光币0克拉
  • 社区居民
阅读:466回复:5

[惊悚]异度见鬼/变眼/美版见鬼.The.Eye.2008.1080p.BluRay.x264-CULTHD 7.9GB

楼主#
更多 发布于:2017-07-30 21:12



◎译  名 异度见鬼/变眼/美版见鬼
◎片  名 The
Eye
◎年  代 2008
◎产  地 美国
◎类  别 剧情/恐怖/惊悚
◎语  言 英语/西班牙语
◎上映日期 2008-02-01
◎IMDb评分  5.4/10
from 46,055 users
◎IMDb链接  http://www.imdb.com/title/tt0406759/
◎豆瓣评分 6.2/10 from
5,054 users
◎豆瓣链接 https://movie.douban.com/subject/1774223/
◎片  长 98
分钟/Turkey: 92 分钟(DVD version)
◎导  演 大卫·莫罗 David Moreau / Xavier
Palud
◎主  演 杰西卡·阿尔芭 Jessica Alba
 亚历桑德罗·尼沃拉 Alessandro
Nivola
 帕克·波西 Parker Posey
 拉德·舍博德兹加 Rade
Serbedzija
 科洛·莫瑞兹 Chloë
Moretz

◎简  介

 家住洛杉矶的希妮·维尔斯(杰西卡·阿尔芭 Jessica Alba
饰)多才多艺,美丽聪慧,但是上天并未对她过多垂青。童年时发生的一场事故,导致希妮双目失明,从此只能生活在黑暗的世界里。在姐姐海伦(帕克·波西 Parker
Posey
饰)的执意劝说下,希妮答应做角膜移植手术,她的世界重见光明。然而好景不长,在慢慢习惯了多彩世界后,希妮经常能够看到一些奇怪诡异的景象,而这些似乎又与死亡紧密联系在一起。在主治医师保罗·福克纳(亚历桑德罗·尼沃拉
Alessandro Nivola
饰)的帮助下,希妮开始踏上一段寻找真相的奇异旅程……
 本片翻拍自港版恐怖片《见鬼》,并荣获2008年青年选择奖最佳女主角奖(Jessica
Alba)。

◎获奖情况

 第29届金酸莓奖  (2009)
 最差女主角(提名)
杰西卡·阿尔芭


Video
ID                                       :
1
Format                                   : AVC
Format/Info              
                : Advanced Video Codec
Format profile                      
    : High@L4.1
Format settings,
CABAC                   : Yes
Format settings, ReFrames                : 5
frames
Codec ID                                 :
V_MPEG4/ISO/AVC
Duration                                 : 1 h 36 min
Bit
rate                                 : 11.2 Mb/s
Width                      
             : 1 920 pixels
Height                                   : 816
pixels
Display aspect ratio                     : 2.35:1
Original display
aspect ratio            : 2.35:1
Frame rate mode                          :
Constant
Frame rate                               : 24.000 FPS
Color
space                              : YUV
Chroma subsampling                
      : 4:2:0
Bit depth                                : 8 bits
Scan type  
                              : Progressive
Bits/(Pixel*Frame)              
         : 0.297
Stream size                              : 7.36 GiB
(93%)
Writing library                          : x264 core 65 r998M
6768543
Encoding settings                        : cabac=1 / ref=5 /
deblock=1:0:0 / analyse=0x3:0x113 / me=hex / subme=7 / psy_rd=1.0:0.0 /
mixed_ref=1 / me_range=16 / chroma_me=1 / trellis=1 / 8x8dct=1 / cqm=0 /
deadzone=21,11 / chroma_qp_offset=-2 / threads=6 / nr=0 / decimate=0 / mbaff=0 /
bframes=3 / b_pyramid=1 / b_adapt=1 / b_bias=0 / direct=1 / wpredb=1 /
keyint=250 / keyint_min=25 / scenecut=40(pre) / rc=2pass / bitrate=11154 /
ratetol=1.0 / qcomp=0.60 / qpmin=10 / qpmax=51 / qpstep=4 / cplxblur=20.0 /
qblur=0.5 / ip_ratio=1.40 / pb_ratio=1.30 / aq=1:1.00
Language              
                   : English
Default                                  :
Yes
Forced                                   : No

Audio
ID        
                               : 2
Format                                   :
AC-3
Format/Info                              : Audio Coding 3
Format
settings, Endianness              : Big
Codec ID                            
    : A_AC3
Duration                                 : 1 h 36 min
Bit rate
mode                            : Constant
Bit rate                          
       : 640 kb/s
Channel(s)                               : 6
channels
Channel positions                        : Front: L C R, Side: L R,
LFE
Sampling rate                            : 48.0 kHz
Frame rate        
                       : 31.250 FPS (1536 spf)
Bit depth                    
            : 16 bits
Compression mode                         :
Lossy
Stream size                              : 441 MiB (5%)
Service
kind                             : Complete Main
Default                    
              : Yes
Forced                                   : No

Text
#1
ID                                       : 3
Format                    
               : UTF-8
Codec ID                                 :
S_TEXT/UTF8
Codec ID/Info                            : UTF-8 Plain
Text
Language                                 : Swedish
Default          
                       : Yes
Forced                                   :
No

Text #2
ID                                       : 4
Format    
                              : UTF-8
Codec ID                                
 : S_TEXT/UTF8
Codec ID/Info                            : UTF-8 Plain
Text
Language                                 : Norwegian
Default        
                          : No
Forced                                   :
No

Text #3
ID                                       : 5
Format    
                              : UTF-8
Codec ID                                
 : S_TEXT/UTF8
Codec ID/Info                            : UTF-8 Plain
Text
Language                                 : Danish
Default          
                       : No
Forced                                   :
No

Text #4
ID                                       : 6
Format    
                              : UTF-8
Codec ID                                
 : S_TEXT/UTF8
Codec ID/Info                            : UTF-8 Plain
Text
Language                                 : Finnish
Default          
                       : No
Forced                                   :
No

Text #5
ID                                       : 7
Format    
                              : UTF-8
Codec ID                                
 : S_TEXT/UTF8
Codec ID/Info                            : UTF-8 Plain
Text
Language                                 : Icelandic
Default        
                          : No
Forced                                   :
No

附件名称/大小 下载次数 最后更新
The.Eye.2008.1080p.BluRay.x264-CULTHD.torrent (80KB)  19 07-30 21:12
donglihuoche
侠客
侠客
  • 注册日期2017-06-29
  • 发帖数20
  • 影币6枚
  • 魔力值96点
  • 蓝光币0克拉
沙发#
发布于:2017-07-30 21:53
这是好片子 应该下载
donglihuoche
侠客
侠客
  • 注册日期2017-06-29
  • 发帖数20
  • 影币6枚
  • 魔力值96点
  • 蓝光币0克拉
板凳#
发布于:2017-07-30 21:54
这是好片子 应该下载
dusza
骑士
骑士
  • 注册日期2016-09-09
  • 发帖数149
  • 影币1枚
  • 魔力值218点
  • 蓝光币0克拉
  • 社区居民
  • 忠实会员
地板#
发布于:2017-08-01 20:38
这是好片子 应该下载
dusza
骑士
骑士
  • 注册日期2016-09-09
  • 发帖数149
  • 影币1枚
  • 魔力值218点
  • 蓝光币0克拉
  • 社区居民
  • 忠实会员
4楼#
发布于:2017-08-01 20:38
这是好片子 应该下载
zjm123
圣骑士
圣骑士
  • 注册日期2016-08-14
  • 发帖数413
  • 影币158枚
  • 魔力值256点
  • 蓝光币0克拉
  • 社区居民
  • 忠实会员
5楼#
发布于:2017-08-06 16:07
谢谢谢谢
游客
返回顶部