sww
sww
论坛版主
论坛版主
  • 注册日期2015-12-13
  • 发帖数1204
  • 影币24371枚
  • 魔力值1335点
  • 蓝光币72克拉
  • 社区居民
  • 最爱沙发
  • 忠实会员
  • 喜欢达人
  • 原创写手
阅读:765回复:13

[恐怖]油鬼子 The.Oily.Maniac.1976.1080p.BluRay.x264-GHOULS 6.56 GB

楼主#
更多 发布于:2017-08-01 16:24

【中文片名】:油鬼子
【片名】:油鬼子
【又名】:The Oily Maniac
【国家】:香港
【影片类型】:恐怖
【影片年代】:1976
【导演】:何梦华
【编剧】:蔡澜
【主演】:李修贤,陈萍,李丽丽
【时长】:84分钟
【上映时间】:1976-09-18
【imdb】:tt0075001
【评分】:imdb5.5  豆瓣5.5


影片简介
    本片由蔡澜编剧,何梦华导演在南洋拍摄的灵异电影。故事发生在南洋,青年沈元的亡父与林亚峇为生死之交。沈父曾在林的背上刺有神秘图案;后林为保护女儿中月而杀了人,被判死刑。林被处死前,让沈把图案描下,此图案实际是一道有特殊功能的符。按图文指示,就会变成威力无穷的油鬼子;沈元变作油鬼子后,救了心仪女子亦杀了不少坏人,但最后却陷入疯狂状态……


预告片和图片
Screenshots:

MediaInfo
 Video
 ID                                       : 1
 Format                                   : AVC
 Format/Info                              : Advanced Video Codec
 Format profile                           : High@L4.1
 Format settings, CABAC                   : Yes
 Format settings, ReFrames                : 5 frames
 Codec ID                                 : V_MPEG4/ISO/AVC
 Duration                                 : 1h 27mn
 Bit rate                                 : 10.1 Mbps
 Width                                    : 1 920 pixels
 Height                                   : 800 pixels
 Display aspect ratio                     : 2.40:1
 Frame rate mode                          : Constant
 Frame rate                               : 23.976 (24000/1001) fps
 Color space                              : YUV
 Chroma subsampling                       : 4:2:0
 Bit depth                                : 8 bits
 Scan type                                : Progressive
 Bits/(Pixel*Frame)                       : 0.273
 Stream size                              : 6.04 GiB (92%)
 Writing library                          : x264 core 152 r2851kMod ba24899
 Encoding settings                        : cabac=1 / ref=5 / deblock=1:-3:-3 / analyse=0x3:0x133 / me=umh / subme=8 / psy=1 / fade_compensate=0.00 / psy_rd=1.00:0.00 / mixed_ref=1 / me_range=16 / chroma_me=1 / trellis=1 / 8x8dct=1 / cqm=0 / deadzone=21,11 / fast_pskip=0 / chroma_qp_offset=-2 / threads=6 / lookahead_threads=1 / sliced_threads=0 / nr=0 / decimate=1 / interlaced=0 / bluray_compat=0 / constrained_intra=0 / bframes=3 / b_pyramid=2 / b_adapt=1 / b_bias=0 / direct=3 / weightb=1 / open_gop=0 / weightp=2 / keyint=250 / keyint_min=23 / scenecut=40 / intra_refresh=0 / rc_lookahead=50 / rc=2pass / mbtree=1 / bitrate=10052 / ratetol=1.0 / qcomp=0.60 / qpmin=0 / qpmax=69 / qpstep=4 / cplxblur=20.0 / qblur=0.5 / vbv_maxrate=62500 / vbv_bufsize=78125 / nal_hrd=none / filler=0 / ip_ratio=1.40 / aq=1:1.00
 Default                                  : Yes
 Forced                                   : No

 Audio
 ID                                       : 2
 Format                                   : AC-3
 Format/Info                              : Audio Coding 3
 Mode extension                           : CM (complete main)
 Format settings, Endianness              : Big
 Codec ID                                 : A_AC3
 Duration                                 : 1h 27mn
 Bit rate mode                            : Constant
 Bit rate                                 : 640 Kbps
 Channel(s)                               : 2 channels
 Channel positions                        : Front: L R
 Sampling rate                            : 48.0 KHz
 Frame rate                               : 31.250 fps (1536 spf)
 Compression mode                         : Lossy
 Stream size                              : 402 MiB (6%)
 Language                                 : Chinese
 Default                                  : Yes
 Forced                                   : No

 Text
 ID                                       : 3
 Format                                   : UTF-8
 Codec ID                                 : S_TEXT/UTF8
 Codec ID/Info                            : UTF-8 Plain Text
 Language                                 : English
 Default                                  : Yes
 Forced                                   : No

 Menu
 00:00:00.000                             : en:00:00:00.000
 00:10:23.414                             : en:00:10:23.414
 00:23:10.055                             : en:00:23:10.055
 00:36:38.947                             : en:00:36:38.947
 00:50:13.969                             : en:00:50:13.969
 01:00:15.237                             : en:01:00:15.237
 01:09:37.673                             : en:01:09:37.673
 01:21:56.745                             : en:01:21:56.745
油鬼子The.Oily.Maniac.1976.1080p.BluRay.x264-GHOULS 6.56G.torrent
climashell
新手
新手
  • 注册日期2017-01-24
  • 发帖数20
  • 影币4枚
  • 魔力值66点
  • 蓝光币0克拉
  • 社区居民
  • 忠实会员
沙发#
发布于:2017-08-01 18:04
感谢您的分享!!!!
yanghaichao
圣骑士
圣骑士
  • 注册日期2015-08-04
  • 发帖数50
  • 影币2枚
  • 魔力值614点
  • 蓝光币0克拉
  • 社区居民
  • 忠实会员
板凳#
发布于:2017-08-01 19:03
老电影了,欣赏欣赏
David449059
骑士
骑士
  • 注册日期2017-03-19
  • 发帖数58
  • 影币0枚
  • 魔力值253点
  • 蓝光币0克拉
  • 社区居民
  • 忠实会员
地板#
发布于:2017-08-01 22:56
谢谢分享。。。
lampc123
圣骑士
圣骑士
  • 注册日期2016-11-30
  • 发帖数308
  • 影币55枚
  • 魔力值623点
  • 蓝光币0克拉
  • 忠实会员
4楼#
发布于:2017-08-02 23:53
非常感谢楼主
Zoker
新手
新手
  • 注册日期2017-04-07
  • 发帖数20
  • 影币0枚
  • 魔力值48点
  • 蓝光币0克拉
  • 社区居民
5楼#
发布于:2017-08-09 00:15
感谢分享!
omomomom
贫民
贫民
  • 注册日期2017-08-11
  • 发帖数6
  • 影币4枚
  • 魔力值2点
  • 蓝光币0克拉
6楼#
发布于:2017-08-11 22:15
感谢分享!
omomomom
贫民
贫民
  • 注册日期2017-08-11
  • 发帖数6
  • 影币4枚
  • 魔力值2点
  • 蓝光币0克拉
7楼#
发布于:2017-08-11 22:24
感谢分享!
newia
侠客
侠客
  • 注册日期2016-12-16
  • 发帖数34
  • 影币5枚
  • 魔力值238点
  • 蓝光币0克拉
  • 社区居民
  • 忠实会员
8楼#
发布于:2017-09-09 01:27
非常感谢楼主
newia
侠客
侠客
  • 注册日期2016-12-16
  • 发帖数34
  • 影币5枚
  • 魔力值238点
  • 蓝光币0克拉
  • 社区居民
  • 忠实会员
9楼#
发布于:2017-09-09 01:28
老电影了,欣赏欣赏
newia
侠客
侠客
  • 注册日期2016-12-16
  • 发帖数34
  • 影币5枚
  • 魔力值238点
  • 蓝光币0克拉
  • 社区居民
  • 忠实会员
10楼#
发布于:2017-09-09 01:28
欣赏欣赏
newia
侠客
侠客
  • 注册日期2016-12-16
  • 发帖数34
  • 影币5枚
  • 魔力值238点
  • 蓝光币0克拉
  • 社区居民
  • 忠实会员
11楼#
发布于:2017-09-09 01:28
老电影了,欣赏欣赏
polarbear5731
新手
新手
  • 注册日期2016-10-01
  • 发帖数20
  • 影币3枚
  • 魔力值62点
  • 蓝光币3克拉
  • 社区居民
12楼#
发布于:2017-10-16 19:37
谢谢楼主分享!回贴回贴!
大老丁
侠客
侠客
  • 注册日期2016-09-05
  • 发帖数61
  • 影币0枚
  • 魔力值125点
  • 蓝光币1克拉
  • 社区居民
13楼#
发布于:2017-10-20 09:46
不知好看否
游客
返回顶部