sww
sww
论坛版主
论坛版主
  • 注册日期2015-12-13
  • 发帖数1204
  • 影币24371枚
  • 魔力值1335点
  • 蓝光币72克拉
  • 社区居民
  • 最爱沙发
  • 忠实会员
  • 喜欢达人
  • 原创写手
阅读:496回复:2

[恐怖]油鬼子The.Oily.Maniac.1976.720p.BluRay.x264-GHOULS 3.28G

楼主#
更多 发布于:2017-08-01 16:28

【中文片名】:油鬼子
【片名】:油鬼子
【又名】:The Oily Maniac
【国家】:香港
【影片类型】:恐怖
【影片年代】:1976
【导演】:何梦华
【编剧】:蔡澜
【主演】:李修贤,陈萍,李丽丽
【时长】:84分钟
【上映时间】:1976-09-18
【imdb】:tt0075001
【评分】:imdb5.5  豆瓣5.5


影片简介
    本片由蔡澜编剧,何梦华导演在南洋拍摄的灵异电影。故事发生在南洋,青年沈元的亡父与林亚峇为生死之交。沈父曾在林的背上刺有神秘图案;后林为保护女儿中月而杀了人,被判死刑。林被处死前,让沈把图案描下,此图案实际是一道有特殊功能的符。按图文指示,就会变成威力无穷的油鬼子;沈元变作油鬼子后,救了心仪女子亦杀了不少坏人,但最后却陷入疯狂状态……


预告片和图片
Screenshots:

MediaInfo
 Video
 ID                                       : 2
 Format                                   : AVC
 Format/Info                              : Advanced Video Codec
 Format profile                           : High@L4.1
 Format settings, CABAC                   : Yes
 Format settings, ReFrames                : 5 frames
 Codec ID                                 : V_MPEG4/ISO/AVC
 Duration                                 : 1h 27mn
 Bit rate                                 : 4 702 Kbps
 Width                                    : 1 280 pixels
 Height                                   : 528 pixels
 Display aspect ratio                     : 2.40:1
 Frame rate mode                          : Constant
 Frame rate                               : 23.976 (24000/1001) fps
 Color space                              : YUV
 Chroma subsampling                       : 4:2:0
 Bit depth                                : 8 bits
 Scan type                                : Progressive
 Bits/(Pixel*Frame)                       : 0.290
 Stream size                              : 2.82 GiB (86%)
 Writing library                          : x264 core 152 r2851kMod ba24899
 Encoding settings                        : cabac=1 / ref=5 / deblock=1:-3:-3 / analyse=0x3:0x133 / me=umh / subme=8 / psy=1 / fade_compensate=0.00 / psy_rd=1.00:0.00 / mixed_ref=1 / me_range=16 / chroma_me=1 / trellis=1 / 8x8dct=1 / cqm=0 / deadzone=21,11 / fast_pskip=0 / chroma_qp_offset=-2 / threads=6 / lookahead_threads=1 / sliced_threads=0 / nr=0 / decimate=1 / interlaced=0 / bluray_compat=0 / constrained_intra=0 / bframes=3 / b_pyramid=2 / b_adapt=1 / b_bias=0 / direct=3 / weightb=1 / open_gop=0 / weightp=2 / keyint=250 / keyint_min=23 / scenecut=40 / intra_refresh=0 / rc_lookahead=50 / rc=2pass / mbtree=1 / bitrate=4702 / ratetol=1.0 / qcomp=0.60 / qpmin=0 / qpmax=69 / qpstep=4 / cplxblur=20.0 / qblur=0.5 / vbv_maxrate=62500 / vbv_bufsize=78125 / nal_hrd=none / filler=0 / ip_ratio=1.40 / aq=1:1.00
 Default                                  : Yes
 Forced                                   : No

 Audio
 ID                                       : 3
 Format                                   : AC-3
 Format/Info                              : Audio Coding 3
 Mode extension                           : CM (complete main)
 Format settings, Endianness              : Big
 Codec ID                                 : A_AC3
 Duration                                 : 1h 27mn
 Bit rate mode                            : Constant
 Bit rate                                 : 640 Kbps
 Channel(s)                               : 2 channels
 Channel positions                        : Front: L R
 Sampling rate                            : 48.0 KHz
 Frame rate                               : 31.250 fps (1536 spf)
 Compression mode                         : Lossy
 Stream size                              : 402 MiB (12%)
 Language                                 : Chinese
 Default                                  : Yes
 Forced                                   : No

 Text
 ID                                       : 1
 Format                                   : UTF-8
 Codec ID                                 : S_TEXT/UTF8
 Codec ID/Info                            : UTF-8 Plain Text
 Language                                 : English
 Default                                  : Yes
 Forced                                   : No

 Menu
 00:00:00.000                             : en:00:00:00.000
 00:10:23.414                             : en:00:10:23.414
 00:23:10.055                             : en:00:23:10.055
 00:36:38.947                             : en:00:36:38.947
 00:50:13.969                             : en:00:50:13.969
 01:00:15.237                             : en:01:00:15.237
 01:09:37.673                             : en:01:09:37.673
 01:21:56.745                             : en:01:21:56.745

油鬼子The.Oily.Maniac.1976.720p.BluRay.x264-GHOULS 3.28G.torrent
yanghaichao
圣骑士
圣骑士
  • 注册日期2015-08-04
  • 发帖数50
  • 影币2枚
  • 魔力值614点
  • 蓝光币0克拉
  • 社区居民
  • 忠实会员
沙发#
发布于:2017-08-01 19:04
支持下老电影
masterroy
圣骑士
圣骑士
  • 注册日期2015-07-29
  • 发帖数201
  • 影币29枚
  • 魔力值440点
  • 蓝光币0克拉
板凳#
发布于:2017-08-03 01:01
感谢。
游客
返回顶部