sww
sww
论坛版主
论坛版主
  • 注册日期2015-12-13
  • 发帖数1204
  • 影币24371枚
  • 魔力值1335点
  • 蓝光币72克拉
  • 社区居民
  • 最爱沙发
  • 忠实会员
  • 喜欢达人
  • 原创写手
阅读:7360回复:78

[科幻]异形:契约 Alien.Covenant.2017.1080p.WEB-DL.DD5.1.H264-FGT 4.22 GB

楼主#
更多 发布于:2017-08-01 16:44

【中文片名】: 异形:契约
【片名】: Alien: Covenant
【又名】: 异形:圣约(港,台)
【国家】: 美国
【影片类型】: 惊悚 / 科幻 / 恐怖
【影片年代】: 2017
【导演】: 雷德利·斯科特 Ridley Scott
【编剧】: 迈克尔·格林 Michael Green,约翰·洛根 John Logan,杰克·帕格恩 Jack Paglen
【主演】: 迈克尔·法斯宾德 Michael Fassbender,凯瑟琳·沃特斯顿 Katherine Waterston,比利·克鲁德普 Billy Crudup,丹尼·麦克布耐德 Danny McBride,德米安·比齐尔 Demián Bichir,卡门·艾乔戈 Carmen Ejogo,朱西·斯莫利特 Jussie Smollett,考莉·赫尔南德斯 Callie Hernandez,艾米·西米茨 Amy Seimetz,纳撒尼尔·迪安 Nathaniel Dean,亚历山大·英格兰 Alexander England,本杰明·里格比 Benjamin Rigby,乌利·拉图基孚 Uli Latukefu,泰丝·哈乌布里奇 Tess Haubrich,罗蕾莱·金 Lorelei King,哈维尔·博特 Javier Botet,詹姆斯·弗兰科 James Franco,盖·皮尔斯 Guy Pearce,劳米·拉佩斯 Noomi Rapace
【时长】: 122分钟,116分钟(中国大陆)
【上映时间】: 2017-05-10(法国),2017-05-19(美国),2017-06-16(中国大陆)
【imdb】: tt2316204
【评分】: IMDB6.7 豆瓣7.4



影片简介


故事发生在一艘名为“契约”的殖民太空船之上,飞船上搭载了两千名进入沉睡的殖民者,他们的目的地是遥远的欧米伽六号行星,希望能够在那里建立新的家园。一场意外的发生令契约号的能量收集帆遭到了破坏,船长布兰森(詹姆斯·弗兰科 James Franco 饰)亦不幸身亡。作为代理船长的欧朗(比利·克鲁德普 Billy Crudup 饰)带领着惊恐而又悲伤的船员们降落到了一颗未知的神秘星球上。 在这里,他们遇见了仿生人大卫(迈克尔·法斯宾德 Michael Fassbender 饰),大卫热情的接纳了人类的到来,并讲述了他和已故的肖博士(劳米·拉佩斯 Noomi Rapace 饰)在这里生活的经历。就在大卫渐渐赢得了船员们的信任的同时,大家已经一步一步的走入了前者为他们精心打造的地狱之中。

预告片和图片





MediaInfo
 Video
 ID                                       : 1
 Format                                   : AVC
 Format/Info                              : Advanced Video Codec
 Format profile                           : High@L4
 Format settings, CABAC                   : Yes
 Format settings, ReFrames                : 5 frames
 Codec ID                                 : V_MPEG4/ISO/AVC
 Duration                                 : 2 h 2 min
 Bit rate                                 : 4 455 kb/s
 Width                                    : 1 916 pixels
 Height                                   : 796 pixels
 Display aspect ratio                     : 2.40:1
 Frame rate mode                          : Constant
 Frame rate                               : 24.000 FPS
 Color space                              : YUV
 Chroma subsampling                       : 4:2:0
 Bit depth                                : 8 bits
 Scan type                                : Progressive
 Bits/(Pixel*Frame)                       : 0.122
 Stream size                              : 3.81 GiB (90%)
 Title                                    : Alien.Covenant.2017.1080p.WEB-DL.DD5.1.H264-FGT
 Language                                 : English
 Default                                  : Yes
 Forced                                   : No
 Color range                              : Limited
 Color primaries                          : BT.709
 Transfer characteristics                 : BT.709
 Matrix coefficients                      : BT.709

 Audio
 ID                                       : 2
 Format                                   : AC-3
 Format/Info                              : Audio Coding 3
 Format settings, Endianness              : Big
 Codec ID                                 : A_AC3
 Duration                                 : 2 h 2 min
 Bit rate mode                            : Constant
 Bit rate                                 : 384 kb/s
 Channel(s)                               : 6 channels
 Channel positions                        : Front: L C R, Side: L R, LFE
 Sampling rate                            : 48.0 kHz
 Frame rate                               : 31.250 FPS (1536 spf)
 Bit depth                                : 16 bits
 Compression mode                         : Lossy
 Stream size                              : 336 MiB (8%)
 Title                                    : Alien.Covenant.2017.1080p.WEB-DL.DD5.1.H264-FGT
 Language                                 : English
 Service kind                             : Complete Main
 Default                                  : Yes
 Forced                                   : No

 Text
 ID                                       : 3
 Format                                   : UTF-8
 Codec ID                                 : S_TEXT/UTF8
 Codec ID/Info                            : UTF-8 Plain Text
 Language                                 : English
 Default                                  : Yes
 Forced                                   : No

 Menu
 00:00:00.000                             : en:Chapter 01
 00:04:48.663                             : en:Chapter 02
 00:13:08.496                             : en:Chapter 03
 00:18:12.925                             : en:Chapter 04
 00:22:47.449                             : en:Chapter 05
 00:27:52.170                             : en:Chapter 06
 00:33:13.908                             : en:Chapter 07
 00:37:19.737                             : en:Chapter 08
 00:42:20.913                             : en:Chapter 09
 00:47:44.695                             : en:Chapter 10
 00:52:05.372                             : en:Chapter 11
 00:55:57.270                             : en:Chapter 12
 01:00:18.447                             : en:Chapter 13
 01:06:21.643                             : en:Chapter 14
 01:11:26.030                             : en:Chapter 15
 01:16:36.882                             : en:Chapter 16
 01:21:11.031                             : en:Chapter 17
 01:28:19.793                             : en:Chapter 18
 01:31:22.559                             : en:Chapter 19
 01:34:53.436                             : en:Chapter 20
 01:39:24.665                             : en:Chapter 21
 01:43:36.875                             : en:Chapter 22
 01:50:50.308                             : en:Chapter 23
 01:55:28.753                             : en:Chapter 24
异形:契约 Alien.Covenant.2017.1080p.WEB-DL.DD5.1.H264-FGT 4.22 GB.torrent
1641323365
骑士
骑士
  • 注册日期2016-12-26
  • 发帖数34
  • 影币2枚
  • 魔力值502点
  • 蓝光币0克拉
  • 社区居民
  • 忠实会员
沙发#
发布于:2017-08-01 16:48
fffffffffffffffffff
baad57
侠客
侠客
  • 注册日期2016-11-27
  • 发帖数52
  • 影币8枚
  • 魔力值106点
  • 蓝光币5克拉
  • 社区居民
板凳#
发布于:2017-08-01 17:20
感谢您的分享!!!!
我叫大头
骑士
骑士
  • 注册日期2017-03-12
  • 发帖数29
  • 影币0枚
  • 魔力值388点
  • 蓝光币0克拉
地板#
发布于:2017-08-01 17:26
好东西,谢谢 了
木晓水月
骑士
骑士
  • 注册日期2015-12-16
  • 发帖数45
  • 影币2枚
  • 魔力值309点
  • 蓝光币1克拉
  • 社区居民
4楼#
发布于:2017-08-01 17:30
好东西,谢谢 了
climashell
新手
新手
  • 注册日期2017-01-24
  • 发帖数20
  • 影币4枚
  • 魔力值66点
  • 蓝光币0克拉
  • 社区居民
  • 忠实会员
5楼#
发布于:2017-08-01 17:59
感谢您的分享!!!!
lampc123
圣骑士
圣骑士
  • 注册日期2016-11-30
  • 发帖数308
  • 影币55枚
  • 魔力值623点
  • 蓝光币0克拉
  • 忠实会员
6楼#
发布于:2017-08-01 18:30
感谢您的分享
赌徒信者
侠客
侠客
  • 注册日期2016-10-11
  • 发帖数23
  • 影币0枚
  • 魔力值125点
  • 蓝光币0克拉
7楼#
发布于:2017-08-01 18:47
好东西,谢谢 了
赌徒信者
侠客
侠客
  • 注册日期2016-10-11
  • 发帖数23
  • 影币0枚
  • 魔力值125点
  • 蓝光币0克拉
8楼#
发布于:2017-08-01 18:48
感谢您的分享!!!!
zxylb
侠客
侠客
  • 注册日期2017-07-04
  • 发帖数31
  • 影币29枚
  • 魔力值166点
  • 蓝光币7克拉
  • 社区居民
9楼#
发布于:2017-08-01 18:54
不错的片子,谢谢分享。。
17706440754
侠客
侠客
  • 注册日期2017-04-18
  • 发帖数67
  • 影币67枚
  • 魔力值115点
  • 蓝光币8克拉
10楼#
发布于:2017-08-01 19:35
感谢您的分享!!!
pys12
圣骑士
圣骑士
  • 注册日期2015-12-29
  • 发帖数146
  • 影币1枚
  • 魔力值633点
  • 蓝光币0克拉
  • 社区居民
  • 忠实会员
11楼#
发布于:2017-08-01 19:48
好东西,谢谢 了
pys12
圣骑士
圣骑士
  • 注册日期2015-12-29
  • 发帖数146
  • 影币1枚
  • 魔力值633点
  • 蓝光币0克拉
  • 社区居民
  • 忠实会员
12楼#
发布于:2017-08-01 19:51
非常感谢楼主
xt2738
精灵王
精灵王
  • 注册日期2015-12-13
  • 发帖数87
  • 影币0枚
  • 魔力值1102点
  • 蓝光币1克拉
  • 社区居民
  • 忠实会员
13楼#
发布于:2017-08-01 20:20
好东西,谢谢 了
abu
abu
精灵王
精灵王
  • 注册日期2015-07-28
  • 发帖数294
  • 影币276枚
  • 魔力值874点
  • 蓝光币3克拉
  • 社区居民
  • 忠实会员
14楼#
发布于:2017-08-01 21:27
磁力链接:
magnet:?xt=urn:btih:7651576C1A0E2FE9E94D3AD24A011372608FB9D5
上一页
游客
返回顶部