gananicus
管理员
管理员
  • 注册日期2015-07-28
  • 发帖数674
  • 影币20107枚
  • 魔力值629点
  • 蓝光币1克拉
  • 社区居民
阅读:830回复:9

[动作]倚天屠龙记之魔教教主【国粤双语中字】Kung.Fu.Cult.Master.1993.720p.BluRay.x264.DTS-WiKi 8.1GB

楼主#
更多 发布于:2017-08-11 14:56


◎译  名 倚天屠龙记之魔教教主
◎片  名 倚天屠龍記之魔教教主
◎年  代 1993
◎产  地 香港
◎类  别 动作/武侠/古装
◎语  言 国粤
◎上映日期 1993-12-18(香港)
◎IMDb评分  6.4/10
from 2,721 users
◎IMDb链接  http://www.imdb.com/title/tt0108624/
◎豆瓣评分 7.2/10
from 52,993 users
◎豆瓣链接 https://movie.douban.com/subject/1299059/
◎片  长 99分钟/101分钟(蓝光)
◎导  演 王晶
Wong Jing
◎主  演 李连杰 Jet Li
 张敏 Sharla Cheung
 邱淑贞 Chingmy
Yau
 黎姿 Gigi Lai
 洪金宝 Sammo Hung Kam-Bo
 吴镇宇 Francis
Ng
 吴耀汉 Richard Ng
 曹荣 Wing Cho
 闫怀礼 Huaili
Yan
 梁家仁 Ka-Yan Leung
 邹兆龙 Collin Chou
 田启文 Kai Man
Tin
 张春仲 Chunzhong Zhang
 姬麒麟 Qilin Ji
◎简  介
 张翠山(吴镇宇
饰)携妻及子张无忌(李连杰
饰)从孤岛出发赶去给其师父贺百岁大寿的途中,被人暗算,张无忌中寒冰掌。在武当山,张翠山和妻子被各大门派逼迫致死,张无忌也不再能练习武功,只能靠张三丰每日所输真气得以残活。张三丰的举动引来宋青书(邹兆龙
饰)的妒忌,他联合了峨眉女弟子周芷若(黎姿 饰)共同对付张无 忌。明教圣女小昭(邱淑贞
饰)令张无忌改变命运,使其先在断崖上遇到高人治好体内寒冰毒、学会九成“九阳神功”,又在明教禁地练得“乾坤大挪移心法”。得知蒙古郡主赵敏(张敏
饰)设计令江湖六大派围攻光明顶想歼灭明教时,张无忌决意为拯救明教赴汤蹈火。

Video
ID                      
                : 1
Format                                   :
AVC
Format/Info                              : Advanced Video Codec
Format
profile                           : High@L4.1
Format settings,
CABAC                   : Yes
Format settings, ReFrames                : 9
frames
Codec ID                                 :
V_MPEG4/ISO/AVC
Duration                                 : 1 h 40 min
Bit
rate                                 : 8 500 kb/s
Width                      
             : 1 280 pixels
Height                                   : 720
pixels
Display aspect ratio                     : 16:9
Frame rate mode    
                     : Constant
Frame rate                               :
24.000 FPS
Color space                              : YUV
Chroma
subsampling                       : 4:2:0
Bit depth                          
      : 8 bits
Scan type                                :
Progressive
Bits/(Pixel*Frame)                       : 0.384
Stream size  
                            : 5.98 GiB (74%)
Writing library                
         : x264 core 146 r2538 121396c
Encoding settings                    
    : cabac=1 / ref=9 / deblock=1:-3:-3 / analyse=0x3:0x133 / me=umh / subme=11
/ psy=1 / psy_rd=1.05:0.05 / mixed_ref=1 / me_range=32 / chroma_me=1 / trellis=2
/ 8x8dct=1 / cqm=0 / deadzone=21,11 / fast_pskip=0 / chroma_qp_offset=-3 /
threads=12 / lookahead_threads=3 / sliced_threads=0 / nr=0 / decimate=0 /
interlaced=0 / bluray_compat=0 / constrained_intra=0 / bframes=10 / b_pyramid=2
/ b_adapt=2 / b_bias=0 / direct=3 / weightb=1 / open_gop=0 / weightp=2 /
keyint=250 / keyint_min=24 / scenecut=40 / intra_refresh=0 / rc=2pass / mbtree=0
/ bitrate=8500 / ratetol=1.0 / qcomp=0.70 / qpmin=0 / qpmax=69 / qpstep=4 /
cplxblur=20.0 / qblur=0.5 / ip_ratio=1.40 / pb_ratio=1.30 /
aq=1:0.70
Language                                 : English
Default    
                             : Yes
Forced                                   :
No

Audio #1
ID                                       : 2
Format    
                              : DTS
Format/Info                            
 : Digital Theater Systems
Mode                                     :
16
Format settings, Endianness              : Big
Codec ID                
                : A_DTS
Duration                                 : 1 h 40
min
Bit rate mode                            : Constant
Bit rate          
                      : 1 509 kb/s
Channel(s)                               :
2 channels
Channel positions                        : Front: L R
Sampling
rate                            : 48.0 kHz
Frame rate                      
        : 93.750 FPS (512 spf)
Bit depth                                : 24
bits
Compression mode                         : Lossy
Stream size        
                      : 1.06 GiB (13%)
Title                                
    : Mandarin
Language                                 : Chinese
Default  
                                : Yes
Forced                                
   : No

Audio #2
ID                                       :
3
Format                                   : DTS
Format/Info              
                : Digital Theater Systems
Mode                                
     : 16
Format settings, Endianness              : Big
Codec ID        
                         : A_DTS
Duration                                 : 1
h 40 min
Bit rate mode                            : Constant
Bit rate    
                            : 1 509 kb/s
Channel(s)                          
     : 6 channels
Channel positions                        : Front: L C R,
Side: L R, LFE
Sampling rate                            : 48.0 kHz
Frame
rate                               : 93.750 FPS (512 spf)
Bit depth          
                     : 16 bits
Compression mode                         :
Lossy
Stream size                              : 1.06 GiB (13%)
Title    
                               : Cantonese
Language                          
       : Chinese
Default                                  : No
Forced    
                              : No

Text #1
ID                          
             : 4
Format                                   : UTF-8
Codec
ID                                 : S_TEXT/UTF8
Codec ID/Info              
              : UTF-8 Plain Text
Duration                                 : 1
h 39 min
Bit rate                                 : 59 b/s
Count of
elements                        : 1407
Stream size                          
    : 43.6 KiB (0%)
Title                                    :
简体中文
Language                                 : Chinese
Default          
                       : Yes
Forced                                   :
No

Text #2
ID                                       : 5
Format    
                              : UTF-8
Codec ID                                
 : S_TEXT/UTF8
Codec ID/Info                            : UTF-8 Plain
Text
Duration                                 : 1 h 39 min
Bit rate        
                         : 59 b/s
Count of elements                        :
1407
Stream size                              : 43.6 KiB (0%)
Title        
                            : 繁体中文
Language                                 :
Chinese
Default                                  : No
Forced              
                     : No

Menu
00:00:00.000                          
   : en:00:00:00.000
00:05:06.417                             :
en:00:05:06.417
00:09:21.417                             :
en:00:09:21.417
00:15:58.417                             :
en:00:15:58.417
00:20:02.333                             :
en:00:20:02.333
00:26:08.417                             :
en:00:26:08.417
00:31:12.833                             :
en:00:31:12.833
00:35:12.042                             :
en:00:35:12.042
00:40:24.083                             :
en:00:40:24.083
00:45:13.000                             :
en:00:45:13.000
00:50:23.417                             :
en:00:50:23.417
00:55:38.000                             :
en:00:55:38.000
01:00:11.417                             :
en:01:00:11.417
01:05:22.167                             :
en:01:05:22.167
01:10:43.083                             :
en:01:10:43.083
01:15:02.417                             :
en:01:15:02.417
01:20:28.250                             :
en:01:20:28.250
01:27:04.000                             :
en:01:27:04.000
01:31:52.000                             :
en:01:31:52.000
01:37:48.000                             :
en:01:37:48.000

附件名称/大小 下载次数 最后更新
The.Kung.Fu.Cult.Master.1993.720p.BluRay.x264.DTS-WiKi.torrent (82KB)  87 08-11 14:56

最新喜欢:

poison101poison...
ahhbwj
精灵王
精灵王
  • 注册日期2015-12-13
  • 发帖数342
  • 影币885枚
  • 魔力值932点
  • 蓝光币35克拉
沙发#
发布于:2017-08-11 18:17
感谢楼主分享
TT237
圣骑士
圣骑士
  • 注册日期2016-08-22
  • 发帖数53
  • 影币0枚
  • 魔力值767点
  • 蓝光币0克拉
板凳#
发布于:2017-08-11 20:50
感谢楼主分享
5515625wei
骑士
骑士
  • 注册日期2016-08-04
  • 发帖数72
  • 影币0枚
  • 魔力值515点
  • 蓝光币0克拉
  • 社区居民
  • 忠实会员
地板#
发布于:2017-08-11 21:21
感谢楼主分享
jemy
精灵王
精灵王
  • 注册日期2015-07-28
  • 发帖数256
  • 影币0枚
  • 魔力值1246点
  • 蓝光币0克拉
4楼#
发布于:2017-08-11 22:58
感谢楼主分享
饮血天下
精灵王
精灵王
  • 注册日期2015-10-14
  • 发帖数85
  • 影币0枚
  • 魔力值916点
  • 蓝光币0克拉
5楼#
发布于:2017-08-12 08:04
感谢楼主分享
啦咪平常心
骑士
骑士
  • 注册日期2017-05-09
  • 发帖数17
  • 影币628枚
  • 魔力值297点
  • 蓝光币0克拉
  • 社区居民
  • 忠实会员
6楼#
发布于:2017-08-12 18:47
谢谢分享,有蓝光版太好了,听说该版本有删剪。
朽木七七
侠客
侠客
  • 注册日期2017-06-03
  • 发帖数7
  • 影币0枚
  • 魔力值212点
  • 蓝光币0克拉
7楼#
发布于:2017-09-07 19:53
感谢楼主分享
xz6668
贫民
贫民
  • 注册日期2017-07-01
  • 发帖数4
  • 影币3枚
  • 魔力值14点
  • 蓝光币1克拉
8楼#
发布于:2017-09-16 14:16
感谢楼主分享
wenyy
新手
新手
  • 注册日期2017-09-13
  • 发帖数13
  • 影币5枚
  • 魔力值20点
  • 蓝光币0克拉
  • 社区居民
9楼#
发布于:2017-09-25 12:32
感谢分享
游客
返回顶部