sww
sww
论坛版主
论坛版主
  • 注册日期2015-12-13
  • 发帖数1086
  • 影币22210枚
  • 魔力值1203点
  • 蓝光币0克拉
  • 社区居民
  • 最爱沙发
  • 忠实会员
  • 喜欢达人
  • 原创写手
阅读:173回复:1

[惊悚]解冻해빙 Bluebeard.2017.KOREAN.1080p.BluRay.REMUX.AVC.DTS-X.7.1-FGT 20.44 GB

楼主#
更多 发布于:2017-08-13 07:52


导演: 李受妍
编剧: 李受妍
主演: 赵震雄 / 金大明 / 申久 / 宋永彰 / 李清娥
类型: 惊悚 / 犯罪
制片国家/地区: 韩国
语言: 韩语
上映日期: 2017-03-01(韩国)
片长: 117分钟
又名: 解氷 / 化冰 / Bluebeard
IMDb链接: tt6599340

解冻的剧情简介 · · · · · ·


    赵镇雄、金大明、申久主演的《解冻》已于7月20日在南扬州综合摄影所开机拍摄。该片是由《辩护人》制片公司 With us Film 打造,乐天发行。
 该片是一部心理惊悚片,讲述的是冰封的汉江慢慢融化,冰面之下的无头女尸浮出水面,连锁杀人魔的秘密也被逐渐揭开。赵镇雄饰演的是内科医生胜勋,在江南开了一家医院但是破产,之后他受雇在前辈的医院里工作,却被卷进连锁杀人事件的秘密中。赵镇雄在拍完第一场戏之后表示:“应该会是一部很有意思的惊悚片。今天是《解冻》的首次摄影,非常激动也很紧张。希望一步一步按部就班地拍好这部电影。”
 金大明和申久饰演的父子成根和郑老人,是胜勋新搬入的单间的房主,同时运营着一家肉店,也因为和连锁杀人犯的秘密有关联,而被胜勋所怀疑。宋永彰饰演的是总是出现在胜勋面前,问一些和连锁杀人犯有关的问题,而李清娥则饰演内科护士美妍,也总是围着胜勋转。
 ...  (展开全部)   赵镇雄、金大明、申久主演的《解冻》已于7月20日在南扬州综合摄影所开机拍摄。该片是由《辩护人》制片公司 With us Film 打造,乐天发行。
 该片是一部心理惊悚片,讲述的是冰封的汉江慢慢融化,冰面之下的无头女尸浮出水面,连锁杀人魔的秘密也被逐渐揭开。赵镇雄饰演的是内科医生胜勋,在江南开了一家医院但是破产,之后他受雇在前辈的医院里工作,却被卷进连锁杀人事件的秘密中。赵镇雄在拍完第一场戏之后表示:“应该会是一部很有意思的惊悚片。今天是《解冻》的首次摄影,非常激动也很紧张。希望一步一步按部就班地拍好这部电影。”
 金大明和申久饰演的父子成根和郑老人,是胜勋新搬入的单间的房主,同时运营着一家肉店,也因为和连锁杀人犯的秘密有关联,而被胜勋所怀疑。宋永彰饰演的是总是出现在胜勋面前,问一些和连锁杀人犯有关的问题,而李清娥则饰演内科护士美妍,也总是围着胜勋转。
 该片是由《四人餐桌》导演李受妍执导。


MediaInfo
 Video
 ID                                       : 1
 Format                                   : AVC
 Format/Info                              : Advanced Video Codec
 Format profile                           : High@L4.1
 Format settings, CABAC                   : Yes
 Format settings, ReFrames                : 4 frames
 Codec ID                                 : V_MPEG4/ISO/AVC
 Duration                                 : 1 h 57 min
 Bit rate mode                            : Variable
 Maximum bit rate                         : 25.0 Mb/s
 Width                                    : 1 920 pixels
 Height                                   : 1 080 pixels
 Display aspect ratio                     : 16:9
 Frame rate mode                          : Constant
 Frame rate                               : 24.000 FPS
 Color space                              : YUV
 Chroma subsampling                       : 4:2:0
 Bit depth                                : 8 bits
 Scan type                                : Progressive
 Title                                    : Bluebeard.2017.KOREAN.1080p.BluRay.REMUX.AVC.DTS-HD.MA.7.1-FGT
 Language                                 : English
 Default                                  : No
 Forced                                   : No

 Audio #1
 ID                                       : 2
 Format                                   : DTS
 Format/Info                              : Digital Theater Systems
 Format profile                           : X / MA / Core
 Mode                                     : 16
 Format settings, Endianness              : Big
 Codec ID                                 : A_DTS
 Bit rate mode                            : Variable / Variable / Constant
 Bit rate                                 : Unknown / Unknown / 1 509 kb/s
 Channel(s)                               : Object Based / 8 channels / 6 channels
 Channel positions                        : Object Based / Front: L C R, Side: L R, Back: L R, LFE / Front: L C R, Side: L R, LFE
 Sampling rate                            :  / 48.0 kHz / 48.0 kHz
 Frame rate                               : 93.750 FPS (512 spf)
 Bit depth                                :  / 24 bits / 24 bits
 Compression mode                         :  / Lossless / Lossy
 Title                                    : Bluebeard.2017.KOREAN.1080p.BluRay.REMUX.AVC.DTS-HD.MA.7.1-FGT
 Language                                 : Korean
 Default                                  : Yes
 Forced                                   : No

 Audio #2
 ID                                       : 3
 Format                                   : DTS
 Format/Info                              : Digital Theater Systems
 Mode                                     : 16
 Format settings, Endianness              : Big
 Codec ID                                 : A_DTS
 Duration                                 : 1 h 57 min
 Bit rate mode                            : Constant
 Bit rate                                 : 1 509 kb/s
 Channel(s)                               : 6 channels
 Channel positions                        : Front: L C R, Side: L R, LFE
 Sampling rate                            : 48.0 kHz
 Frame rate                               : 93.750 FPS (512 spf)
 Bit depth                                : 24 bits
 Compression mode                         : Lossy
 Stream size                              : 1.24 GiB (6%)
 Title                                    : Bluebeard.2017.KOREAN.1080p.BluRay.REMUX.AVC.DTS-HD.MA.7.1-FGT
 Language                                 : Korean
 Default                                  : No
 Forced                                   : No

 Audio #3
 ID                                       : 4
 Format                                   : AC-3
 Format/Info                              : Audio Coding 3
 Format settings, Endianness              : Big
 Codec ID                                 : A_AC3
 Duration                                 : 1 h 57 min
 Bit rate mode                            : Constant
 Bit rate                                 : 384 kb/s
 Channel(s)                               : 2 channels
 Channel positions                        : Front: L R
 Sampling rate                            : 48.0 kHz
 Frame rate                               : 31.250 FPS (1536 spf)
 Bit depth                                : 16 bits
 Compression mode                         : Lossy
 Stream size                              : 322 MiB (2%)
 Title                                    : Bluebeard.2017.KOREAN.1080p.BluRay.REMUX.AVC.DTS-HD.MA.7.1-FGT
 Language                                 : Korean
 Service kind                             : Complete Main
 Default                                  : No
 Forced                                   : No

 Text
 ID                                       : 5
 Format                                   : PGS
 Muxing mode                              : zlib
 Codec ID                                 : S_HDMV/PGS
 Codec ID/Info                            : Picture based subtitle format used on BDs/HD-DVDs
 Title                                    : English-PGS
 Language                                 : English
 Default                                  : Yes
 Forced                                   : No

 Menu
 00:00:00.000                             : en:Chapter 00
 00:10:17.250                             : en:Chapter 01
 00:18:44.666                             : en:Chapter 02
 00:26:16.291                             : en:Chapter 03
 00:35:40.041                             : en:Chapter 04
 00:46:02.666                             : en:Chapter 05
 00:56:17.375                             : en:Chapter 06
 01:07:51.791                             : en:Chapter 07
 01:18:28.833                             : en:Chapter 08
 01:29:12.041                             : en:Chapter 09
 01:37:53.375                             : en:Chapter 10
 01:45:38.666                             : en:Chapter 11
 01:53:36.375                             : en:Chapter 12
解冻해빙 Bluebeard.2017.KOREAN.1080p.BluRay.REMUX.AVC.DTS-X.7.1-FGT 20.44 GB.torrent
oklau2234
精灵王
精灵王
  • 注册日期2015-07-28
  • 发帖数1379
  • 影币2182枚
  • 魔力值1468点
  • 蓝光币0克拉
  • 社区居民
  • 最爱沙发
  • 忠实会员
沙发#
发布于:2017-08-13 12:10
謝您的無私分享   精彩的電影那會嫌多,繼續繼續
游客
返回顶部