smy
smy
总版主
总版主
  • 注册日期2015-07-27
  • 发帖数1426
  • 影币67445枚
  • 魔力值2295点
  • 蓝光币1克拉
  • 社区居民
  • 忠实会员
  • 喜欢达人
  • 原创写手
阅读:14158回复:550

[SeeHD原创首发]绣春刀2:修罗战场/绣春刀:修罗场/绣春刀前传 Brotherhood of Blades II The Infernal Battlefield 2017 4K 2160p WEB-DL x264 AAC-SmY 中英(内嵌) 5.19G

楼主#
更多 发布于:2017-09-01 16:22




◎译  名 绣春刀2:修罗战场/绣春刀:修罗场/绣春刀前传/绣春刀II:修罗战场
◎片  名 Brotherhood of Blades II: The Infernal Battlefield
◎年  代 2017
◎产  地 中国大陆
◎类  别 剧情/动作/武侠/古装
◎语  言 汉语普通话
◎上映日期 2017-06-18(上海电影节)/2017-07-19(中国大陆)
◎IMDb评分  7.1/10 from 189 users
◎IMDb链接  http://www.imdb.com/title/tt7055592/
◎豆瓣评分 7.5/10 from 104,591 users
◎豆瓣链接 https://movie.douban.com/subject/26270502/
◎片  长 120分钟
◎导  演 路阳 Yang Lu
◎主  演 张震 Chen Chang
杨幂 Mi Yang
张译 Yi Zhang
雷佳音 Jiayin Lei
辛芷蕾 Zhilei Xin
金士杰 Shih-Chieh King
刘端端 Duanduan Liu
武强 Qiang Wu
杨轶 Yi Yang
李媛 Yuan Li
吴晓亮 Xiaoliang Wu
李洪涛 Hongtao Li
刘峰超 Fengchao Liu
袁文康 Wenkang Yuan
马赫 He Ma
刘亭作 Tingzuo Liu
姜晓冲 Xiaozhong Jiang
陈齐威 Qiwei Chen
王仁君 Renjun Wang


◎简  介


明天启七年,北镇抚司锦衣卫沈炼(张震 饰)在一次扫除乱党任务中,为救画师北斋(杨幂 饰),将同僚凌云铠(武强 饰)灭口。此后一方面要摆脱来自陆文昭(张译 饰)、裴纶(雷佳音 饰)的质疑与调查,一方面又在神秘女子的要挟下放火烧了锦衣卫经历司。裹挟在乱世,沈炼与北斋情陷其中,却越陷越深。而在这一切的背后,巨大阴谋正暗中布局。众生如蝼蚁囿于修罗场,逆鳞之战,一触即发……
General
Format                         : Matroska
Format version                 : Version 4 / Version 2
File size                      : 5.19 GiB
Duration                       : 1h 59mn
Overall bit rate               : 6 190 Kbps
Encoded date                   : UTC 2017-09-01 08:13:23
Writing application            : mkvmerge v7.1.0 ('Good Love') 32bit built on Jul 27 2014 12:59:18
Writing library                : libebml v1.3.0 + libmatroska v1.4.1

Video
ID                             : 1
Format                         : AVC
Format/Info                    : Advanced Video Codec
Format profile                 : High@L5
Format settings, CABAC         : Yes
Format settings, ReFrames      : 3 frames
Codec ID                       : V_MPEG4/ISO/AVC
Duration                       : 1h 59mn
Bit rate                       : 6 126 Kbps
Width                          : 3 840 pixels
Height                         : 1 440 pixels
Display aspect ratio           : 2.667
Frame rate mode                : Constant
Frame rate                     : 24.000 fps
Color space                    : YUV
Chroma subsampling             : 4:2:0
Bit depth                      : 8 bits
Scan type                      : Progressive
Bits/(Pixel*Frame)             : 0.046
Stream size                    : 5.13 GiB (99%)
Default                        : Yes
Forced                         : No
Color range                    : Limited
Color primaries                : BT.709
Transfer characteristics       : BT.709
Matrix coefficients            : BT.709

Audio
ID                             : 2
Format                         : AAC
Format/Info                    : Advanced Audio Codec
Format profile                 : HE-AAC / LC
Codec ID                       : A_AAC
Duration                       : 1h 59mn
Bit rate                       : 63.0 Kbps
Channel(s)                     : 2 channels
Channel positions              : Front: L R
Sampling rate                  : 44.1 KHz / 22.05 KHz
Frame rate                     : 21.533 fps (1024 spf)
Compression mode               : Lossy
Stream size                    : 54.0 MiB (1%)
Default                        : Yes
Forced                         : No





Brotherhood of Blades II The Infernal Battlefield 2017 4K 2160p WEB-DL x264 AAC-SmY.torrent
tianlong1hao
侠客
侠客
  • 注册日期2017-08-28
  • 发帖数94
  • 影币185枚
  • 魔力值36点
  • 蓝光币52克拉
  • 社区居民
  • 忠实会员
沙发#
发布于:2017-09-01 16:30
咋看像是韩国的呢
yong
精灵王
精灵王
  • 注册日期2015-07-29
  • 发帖数483
  • 影币4599枚
  • 魔力值1428点
  • 蓝光币397克拉
  • 社区居民
  • 忠实会员
板凳#
发布于:2017-09-01 16:37
绣春刀2:修罗战场/绣春刀:修罗场/绣春刀前传
ttday
圣骑士
圣骑士
  • 注册日期2016-10-01
  • 发帖数113
  • 影币95枚
  • 魔力值491点
  • 蓝光币19克拉
  • 社区居民
  • 忠实会员
地板#
发布于:2017-09-01 16:45
回帖下载一下子 哈哈啊
wangxiyao
精灵王
精灵王
  • 注册日期2016-02-21
  • 发帖数87
  • 影币5枚
  • 魔力值984点
  • 蓝光币2克拉
  • 社区居民
  • 忠实会员
4楼#
发布于:2017-09-01 16:58
回帖下载一下子 哈哈啊
willydxf
新手
新手
  • 注册日期2017-08-29
  • 发帖数46
  • 影币59枚
  • 魔力值42点
  • 蓝光币35克拉
  • 社区居民
5楼#
发布于:2017-09-01 17:03
谢谢楼主分享
kieeyz
骑士
骑士
  • 注册日期2016-05-18
  • 发帖数57
  • 影币13枚
  • 魔力值248点
  • 蓝光币3克拉
  • 社区居民
  • 忠实会员
6楼#
发布于:2017-09-01 17:14
谢谢楼主分享
kieeyz
骑士
骑士
  • 注册日期2016-05-18
  • 发帖数57
  • 影币13枚
  • 魔力值248点
  • 蓝光币3克拉
  • 社区居民
  • 忠实会员
7楼#
发布于:2017-09-01 17:14
谢谢楼主分享
cookie376
侠客
侠客
  • 注册日期2015-10-04
  • 发帖数17
  • 影币13枚
  • 魔力值180点
  • 蓝光币1克拉
8楼#
发布于:2017-09-01 17:18
回复下载吗
jklmo
骑士
骑士
  • 注册日期2016-07-17
  • 发帖数8
  • 影币11枚
  • 魔力值358点
  • 蓝光币1克拉
  • 社区居民
  • 忠实会员
9楼#
发布于:2017-09-01 17:21
谢谢楼主分享
kobb
贫民
贫民
  • 注册日期2017-09-01
  • 发帖数4
  • 影币14枚
  • 魔力值4点
  • 蓝光币4克拉
10楼#
发布于:2017-09-01 17:22
谢谢楼主分享
hgzhashu
骑士
骑士
  • 注册日期2017-03-26
  • 发帖数17
  • 影币3枚
  • 魔力值336点
  • 蓝光币1克拉
  • 社区居民
11楼#
发布于:2017-09-01 17:24
谢谢分享。。。
xyasj
圣骑士
圣骑士
  • 注册日期2017-01-07
  • 发帖数139
  • 影币224枚
  • 魔力值512点
  • 蓝光币4克拉
  • 社区居民
  • 忠实会员
12楼#
发布于:2017-09-01 18:04
看过第一部,还不错,希望第二部不要让我失望!感谢分享!
msy宝井小龙
侠客
侠客
  • 注册日期2015-08-08
  • 发帖数34
  • 影币46枚
  • 魔力值194点
  • 蓝光币11克拉
  • 社区居民
  • 忠实会员
13楼#
发布于:2017-09-01 18:05
感谢分享
mohuang
侠客
侠客
  • 注册日期2017-01-23
  • 发帖数33
  • 影币76枚
  • 魔力值131点
  • 蓝光币4克拉
  • 社区居民
14楼#
发布于:2017-09-01 18:27
绣春刀2:修罗战场/绣春刀:修罗场/绣春刀前传/绣春刀II:修罗战场
上一页
游客
返回顶部