smy
smy
总版主
总版主
  • 注册日期2015-07-27
  • 发帖数1426
  • 影币67445枚
  • 魔力值2295点
  • 蓝光币1克拉
  • 社区居民
  • 忠实会员
  • 喜欢达人
  • 原创写手
阅读:10027回复:433

[SeeHD原创首发]三生三世十里桃花 电影版 Once Upon a Time 2017 4K 2160p WEB-DL x264 AAC-SmY 中英(内嵌)4.95G

楼主#
更多 发布于:2017-09-03 01:07



◎片  名 三生三世十里桃花

◎又  名 Once Upon a Time
◎年  代 2017
◎地  区 中国大陆
◎类  型 爱情/奇幻
◎语  言 汉语普通话
◎上映日期 2017-08-03(中国大陆)
◎IMDb链接     http://www.imdb.com/title/tt6138688/
◎IMDb评分     6.2/10 from 562 users
◎豆瓣链接 https://movie.douban.com/subject/25823277/
◎豆瓣评分 4.2/10 from 102,860 users
◎片  长 109分钟
◎导  演 赵小丁  Xiaoding Zhao
安东尼·拉默里纳拉  Anthony LaMolinara
◎主  演 刘亦菲  Yifei Liu
杨洋  Yang Yang
罗晋  Jin Luo
严屹宽  Yikuan Yan
李纯  Chun Li
顾璇  Xuan Gu
陈佩斯  Peisi Chen
彭子苏  Zisu Peng
张贺茗  Heming Zhang
王羽铮  Yuzheng Wang
塔拉  Luc


◎简  介


      天族战神墨渊(杨洋 饰)镇压鬼君擎苍(严宽 饰)于无妄海,魂飞魄散,仙体冰封于青丘炎华洞内。青丘帝姬白浅(刘亦菲 饰)同天族太子夜华(杨洋 饰)早有婚约,二人却一直未曾相见。直至东海盛宴,夜华发现白浅竟然同亡妻素素(刘亦菲 饰)相貌一样,就势住进白浅的青丘,放下太子身段,为求解开白浅与素素之谜。夜华侧妃素锦(李纯 饰)生妒,暗中协助鬼族王后玄女(顾璇 饰)抢走墨渊仙体。白浅一怒之下血战鬼族大紫明宫,身负重伤,终被夜华救下。白浅跟随夜华来到九重天,通过天族圣器结魄灯恢复记忆,回想起身为素素一世之时所受伤害,不能原谅夜华。陷害白浅的素锦受到责罚,发配至无妄海,由妒生恨,终至疯狂,利用夜华之子小天孙阿离(彭子苏 饰)之血释放出被墨渊封印的鬼君擎苍。夜华为维护四海八荒,以元神生祭东皇钟,将擎苍封印。世事轮回,万般纠葛不过一个爱字。命运轮回,夜华与白浅究竟何去何从……

General
Format                         : Matroska
Format version                 : Version 4 / Version 2
File size                      : 4.96 GiB
Duration                       : 1h 49mn
Overall bit rate               : 6 491 Kbps
Encoded date                   : UTC 2017-09-02 16:57:42
Writing application            : mkvmerge v7.1.0 ('Good Love') 32bit built on Jul 27 2014 12:59:18
Writing library                : libebml v1.3.0 + libmatroska v1.4.1

Video
ID                             : 1
Format                         : AVC
Format/Info                    : Advanced Video Codec
Format profile                 : High@L5.1
Format settings, CABAC         : Yes
Format settings, ReFrames      : 3 frames
Codec ID                       : V_MPEG4/ISO/AVC
Duration                       : 1h 49mn
Bit rate                       : 6 426 Kbps
Width                          : 3 840 pixels
Height                         : 1 616 pixels
Display aspect ratio           : 2.40:1
Frame rate mode                : Constant
Frame rate                     : 25.000 fps
Color space                    : YUV
Chroma subsampling             : 4:2:0
Bit depth                      : 8 bits
Scan type                      : Progressive
Bits/(Pixel*Frame)             : 0.041
Stream size                    : 4.91 GiB (99%)
Default                        : Yes
Forced                         : No
Color range                    : Limited
Color primaries                : BT.709
Transfer characteristics       : BT.709
Matrix coefficients            : BT.709

Audio
ID                             : 2
Format                         : AAC
Format/Info                    : Advanced Audio Codec
Format profile                 : HE-AAC / LC
Codec ID                       : A_AAC
Duration                       : 1h 49mn
Bit rate                       : 62.8 Kbps
Channel(s)                     : 2 channels
Channel positions              : Front: L R
Sampling rate                  : 44.1 KHz / 22.05 KHz
Frame rate                     : 21.533 fps (1024 spf)
Compression mode               : Lossy
Stream size                    : 49.2 MiB (1%)
Default                        : Yes
Forced                         : No






Once Upon a Time 2017 4K 2160p WEB-DL x264 AAC-SmY.torrent
猫猫爸
新手
新手
  • 注册日期2017-08-27
  • 发帖数13
  • 影币1枚
  • 魔力值20点
  • 蓝光币7克拉
  • 社区居民
  • 忠实会员
沙发#
发布于:2017-09-03 01:16
这个电影好看不好看啊 先看看
红色卡卡
圣骑士
圣骑士
  • 注册日期2016-08-28
  • 发帖数58
  • 影币2419枚
  • 魔力值850点
  • 蓝光币7克拉
  • 社区居民
  • 忠实会员
板凳#
发布于:2017-09-03 02:05
谢谢分享,看看了先
josh91sk
圣骑士
圣骑士
  • 注册日期2015-07-31
  • 发帖数109
  • 影币95枚
  • 魔力值605点
  • 蓝光币2克拉
  • 社区居民
  • 忠实会员
地板#
发布于:2017-09-03 04:32
谢谢分享。。听说票房不好!
zyyzwyf
骑士
骑士
  • 注册日期2017-05-17
  • 发帖数323
  • 影币431枚
  • 魔力值105点
  • 蓝光币175克拉
  • 社区居民
  • 忠实会员
4楼#
发布于:2017-09-03 05:11
楼主辛苦,谢谢分享。
sllhfxsj
骑士
骑士
  • 注册日期2016-08-06
  • 发帖数169
  • 影币189枚
  • 魔力值158点
  • 蓝光币124克拉
5楼#
发布于:2017-09-03 05:49
楼主辛苦,谢谢分享。
jiang757607lei
精灵王
精灵王
  • 注册日期2015-07-28
  • 发帖数290
  • 影币93枚
  • 魔力值1305点
  • 蓝光币3克拉
  • 社区居民
  • 忠实会员
6楼#
发布于:2017-09-03 06:25
谢谢分享。。。。。
chenda8988
终生无尚荣耀蓝光粉
终生无尚荣耀蓝光粉
  • 注册日期2017-02-22
  • 发帖数382
  • 影币1001枚
  • 魔力值198点
  • 蓝光币341克拉
  • 社区居民
  • 忠实会员
  • 追星一族
7楼#
发布于:2017-09-03 06:34
感谢楼主分享
qucg
侠客
侠客
  • 注册日期2017-04-03
  • 发帖数38
  • 影币52枚
  • 魔力值213点
  • 蓝光币5克拉
  • 社区居民
  • 忠实会员
8楼#
发布于:2017-09-03 06:42
感谢楼主分享
kgb1946
圣骑士
圣骑士
  • 注册日期2016-10-06
  • 发帖数406
  • 影币263枚
  • 魔力值562点
  • 蓝光币29克拉
  • 社区居民
  • 忠实会员
9楼#
发布于:2017-09-03 07:18
谢谢分享 支持支持
wakeup
圣骑士
圣骑士
  • 注册日期2016-05-01
  • 发帖数338
  • 影币129枚
  • 魔力值480点
  • 蓝光币11克拉
10楼#
发布于:2017-09-03 07:59
msy宝井小龙
侠客
侠客
  • 注册日期2015-08-08
  • 发帖数34
  • 影币46枚
  • 魔力值194点
  • 蓝光币11克拉
  • 社区居民
  • 忠实会员
11楼#
发布于:2017-09-03 08:08
感谢分享啊
li258735177
圣骑士
圣骑士
  • 注册日期2015-07-30
  • 发帖数140
  • 影币15枚
  • 魔力值779点
  • 蓝光币5克拉
  • 社区居民
  • 忠实会员
12楼#
发布于:2017-09-03 10:37
谢谢分享...........
hybkgqlm
侠客
侠客
  • 注册日期2017-01-31
  • 发帖数28
  • 影币259枚
  • 魔力值170点
  • 蓝光币19克拉
  • 社区居民
  • 忠实会员
13楼#
发布于:2017-09-03 10:48
楼主辛苦,谢谢分享。
frank437
新手
新手
  • 注册日期2017-09-03
  • 发帖数31
  • 影币53枚
  • 魔力值10点
  • 蓝光币15克拉
  • 社区居民
14楼#
发布于:2017-09-03 11:28
看看,和电视剧相比不知如何
上一页
游客
返回顶部