smy
smy
总版主
总版主
  • 注册日期2015-07-27
  • 发帖数1426
  • 影币67445枚
  • 魔力值2295点
  • 蓝光币1克拉
  • 社区居民
  • 忠实会员
  • 喜欢达人
  • 原创写手
阅读:11517回复:438

[SeeHD原创首发]鲛珠传 Legend of the Naga Pearls 2017 4K 2160p WEB-DL x264 AAC-SmY 中文(内嵌)4.76G

楼主#
更多 发布于:2017-09-08 16:22




◎译  名 Legend of the Naga Pearls
◎片  名 鲛珠传
◎年  代 2017
◎产  地 中国大陆/香港
◎类  别 喜剧/动作/爱情/奇幻
◎语  言 汉语普通话
◎上映日期 2017-08-11(中国大陆)
◎IMDb评分  6.3/10 from 15 users
◎IMDb链接  http://www.imdb.com/title/tt6288650/
◎豆瓣评分 4.8/10 from 8,744 users
◎豆瓣链接 https://movie.douban.com/subject/25857966/
◎片  长 108分钟
◎导  演 杨磊 Lei Yang
◎主  演 王大陆 Darren Wang
张天爱 Tian'ai Zhang
任达华 Simon Yam
盛冠森 Guansen Sheng
王迅 Xun Wang
赵健 Jian Zhao
刘俊孝 Dean Liu
释彦能 Xingyu Shi
胡兵 Hu Bing
何穗 Sui He
蒋璐霞 Luxia Jiang
杜奕衡 John Do
周一围 Yiwei Zhou


◎简  介


故事发生在九州,一个聪明的贼(王大陆 饰)、一个尽职的捕快(张天爱 饰)和一个单纯的王子(盛冠森 饰),一次偶然的相遇。三个人有着各自不同的目的,互相不信任,却不得不共同进入一段奇特的旅行。在旅行中,三个人都从对方的身上找到了友谊和爱,最终阻止一次毁灭世界的阴谋。
General
Format                         : Matroska
Format version                 : Version 4 / Version 2
File size                      : 4.76 GiB
Duration                       : 1h 48mn
Overall bit rate               : 6 305 Kbps
Encoded date                   : UTC 2017-09-08 08:11:28
Writing application            : mkvmerge v7.1.0 ('Good Love') 32bit built on Jul 27 2014 12:59:18
Writing library                : libebml v1.3.0 + libmatroska v1.4.1

Video
ID                             : 1
Format                         : AVC
Format/Info                    : Advanced Video Codec
Format profile                 : High@L5.1
Format settings, CABAC         : Yes
Format settings, ReFrames      : 3 frames
Codec ID                       : V_MPEG4/ISO/AVC
Duration                       : 1h 48mn
Bit rate                       : 6 241 Kbps
Width                          : 3 840 pixels
Height                         : 2 160 pixels
Display aspect ratio           : 16:9
Frame rate mode                : Constant
Frame rate                     : 24.000 fps
Color space                    : YUV
Chroma subsampling             : 4:2:0
Bit depth                      : 8 bits
Scan type                      : Progressive
Bits/(Pixel*Frame)             : 0.031
Stream size                    : 4.71 GiB (99%)
Default                        : Yes
Forced                         : No
Color range                    : Limited
Color primaries                : BT.709
Transfer characteristics       : BT.709
Matrix coefficients            : BT.709

Audio
ID                             : 2
Format                         : AAC
Format/Info                    : Advanced Audio Codec
Format profile                 : HE-AAC / LC
Codec ID                       : A_AAC
Duration                       : 1h 48mn
Bit rate                       : 62.9 Kbps
Channel(s)                     : 2 channels
Channel positions              : Front: L R
Sampling rate                  : 44.1 KHz / 22.05 KHz
Frame rate                     : 21.533 fps (1024 spf)
Compression mode               : Lossy
Stream size                    : 48.6 MiB (1%)
Default                        : Yes
Forced                         : No





 
Legend of the Naga Pearls 2017 4K 2160p WEB-DL x264 AAC-SmY.torrent
smy
smy
总版主
总版主
  • 注册日期2015-07-27
  • 发帖数1426
  • 影币67445枚
  • 魔力值2295点
  • 蓝光币1克拉
  • 社区居民
  • 忠实会员
  • 喜欢达人
  • 原创写手
沙发#
发布于:2017-09-08 16:38
沙发!!!!
yong
精灵王
精灵王
  • 注册日期2015-07-29
  • 发帖数483
  • 影币4599枚
  • 魔力值1428点
  • 蓝光币397克拉
  • 社区居民
  • 忠实会员
板凳#
发布于:2017-09-08 16:48
鲛珠传 Legend of the Naga Pearls 2017 4K 2160p
yong
精灵王
精灵王
  • 注册日期2015-07-29
  • 发帖数483
  • 影币4599枚
  • 魔力值1428点
  • 蓝光币397克拉
  • 社区居民
  • 忠实会员
地板#
发布于:2017-09-08 16:49
鲛珠传 Legend of the Naga Pearls 2017 4K 2160p
yong
精灵王
精灵王
  • 注册日期2015-07-29
  • 发帖数483
  • 影币4599枚
  • 魔力值1428点
  • 蓝光币397克拉
  • 社区居民
  • 忠实会员
4楼#
发布于:2017-09-08 16:49
鲛珠传 Legend of the Naga Pearls 2017 4K 2160p
Simon3748
精灵王
精灵王
  • 注册日期2016-04-23
  • 发帖数220
  • 影币2689枚
  • 魔力值1062点
  • 蓝光币158克拉
  • 社区居民
  • 忠实会员
5楼#
发布于:2017-09-08 16:56
鲛珠传 4K 2160P 謝謝樓主發片分享
1747699101
圣骑士
圣骑士
  • 注册日期2016-11-19
  • 发帖数480
  • 影币468枚
  • 魔力值328点
  • 蓝光币205克拉
  • 社区居民
  • 忠实会员
6楼#
发布于:2017-09-08 17:07
多謝樓主的分享
cowsboy
圣骑士
圣骑士
  • 注册日期2015-12-14
  • 发帖数21
  • 影币95枚
  • 魔力值928点
  • 蓝光币1克拉
7楼#
发布于:2017-09-08 17:22
我下了个假种子吗?怎么没速度
csl2763
贫民
贫民
  • 注册日期2017-09-08
  • 发帖数2
  • 影币0枚
  • 魔力值2点
  • 蓝光币1克拉
8楼#
发布于:2017-09-08 17:32
感谢分享
136008398
骑士
骑士
  • 注册日期2016-03-13
  • 发帖数20
  • 影币17枚
  • 魔力值324点
  • 蓝光币5克拉
  • 社区居民
  • 忠实会员
9楼#
发布于:2017-09-08 17:35
这么快就出啦,谢谢分享啦~
ysxp001
骑士
骑士
  • 注册日期2016-09-20
  • 发帖数32
  • 影币8枚
  • 魔力值294点
  • 蓝光币7克拉
  • 社区居民
  • 忠实会员
10楼#
发布于:2017-09-08 17:43
鲛珠传 Legend of the Naga Pearls 2017 4K 2160p
Hoijuon
骑士
骑士
  • 注册日期2017-06-07
  • 发帖数417
  • 影币422枚
  • 魔力值116点
  • 蓝光币405克拉
  • 社区居民
  • 忠实会员
11楼#
发布于:2017-09-08 17:52
谢谢分享
yunwuyou
精灵王
精灵王
  • 注册日期2015-12-20
  • 发帖数182
  • 影币74枚
  • 魔力值1033点
  • 蓝光币9克拉
  • 社区居民
  • 忠实会员
12楼#
发布于:2017-09-08 18:12
这个没有普通版本吗
HONGA9
骑士
骑士
  • 注册日期2016-12-09
  • 发帖数33
  • 影币0枚
  • 魔力值468点
  • 蓝光币3克拉
  • 社区居民
  • 忠实会员
13楼#
发布于:2017-09-08 18:20
谢谢分享
aionvshen
侠客
侠客
  • 注册日期2016-11-11
  • 发帖数14
  • 影币16枚
  • 魔力值160点
  • 蓝光币1克拉
14楼#
发布于:2017-09-08 19:11
带叶连枝摘未残
上一页
游客
返回顶部