smy
smy
总版主
总版主
  • 注册日期2015-07-27
  • 发帖数1426
  • 影币67445枚
  • 魔力值2295点
  • 蓝光币1克拉
  • 社区居民
  • 忠实会员
  • 喜欢达人
  • 原创写手
阅读:8992回复:305

[SeeHD原创首发]明月几时有 【周迅/彭于晏/霍建华】Our Time Will Come 2017 4K 2160p WEB-DL x264 AAC-SmY 中英(内嵌)5.53G

楼主#
更多 发布于:2017-09-16 12:51



◎译  名 OurTimeWillCome
◎片  名 明月几时有
◎年  代 2017
◎产  地 中国大陆
◎类  别 剧情/历史/战争
◎语  言 汉语普通话
◎上映日期 2017-06-18(上海电影节)/2017-07-01(中国大陆)
◎IMDb评分  6.4/10 from 155 users
◎IMDb链接  http://www.imdb.com/title/tt7075594/
◎豆瓣评分 7.1/10 from 27,042 users
◎豆瓣链接 https://movie.douban.com/subject/26425072/
◎片  长 130分钟
◎导  演 许鞍华 Ann Hui
◎主  演 周迅 Xun Zhou
彭于晏 Eddie Peng
霍建华 Wallace Huo
叶德娴 Deanie Ip
郭涛 Tao Guo
春夏 Chun Xia
黄志忠 Zhi-zhong Huang
蒋雯丽 Wenli Jiang
梁家辉 Tony Leung
王菀之 Ivana Wong
吕良伟 Ray Lui
鲍起静 Hee Ching Paw
李灿森 Sam Lee
梁文道 Man-tao Leung
张兆辉 Siu-Fai Cheung
冯淬帆 Stanley Fung
苑琼丹 King-Tan Yuen
唐宁 Leila Tong
卢巧音 Candy Lo
许鞍华 Ann Hui
永濑正敏 Masatoshi Nagase
森田凉花 Suzuka Morita
廖骏雄 Chun Hung Liao
何华超 Tony Ho
蔡瀚亿 Babyjohn Choi
欧锦棠 Stephen Au
熊欣欣 Xinxin Xiong
吴岱融 Hugo Ng Doi-Yung


◎简  介


故事发生在1940年代的香港,妙龄少女方兰(周迅 饰)和母亲(叶德娴 饰)一起过着相依为命的生活,两人将家中的二楼租住给了作家茅盾(郭涛 饰)和其太太孔德沚(蒋雯丽 饰)。方兰十分热爱矛盾的文字,在其中感受到了火热的革命热情和澎湃的民族气节,然而对于身边动荡的时局和紧张的政治氛围,方兰却知之甚少。
刘锦进(彭于晏 饰)是拥有着矫健身手的进步青年,受组织委托,他负责护送滞留在香港的一批重要文人返回大陆,茅盾一家人便在名单之列。在误打误撞之中,方兰被卷入了这一危险的行动之中,并在刘锦进的建议和鼓励之下,加入了革命队伍之中去,母女两人因此被卷入了历史的滚滚洪流之中。


◎获奖情况


第20届上海国际电影节  (2017)
金爵奖(提名) 许鞍华
General
Format                         : Matroska
Format version                 : Version 4 / Version 2
File size                      : 5.53 GiB
Duration                       : 2h 10mn
Overall bit rate               : 6 071 Kbps
Encoded date                   : UTC 2017-09-16 04:40:55
Writing application            : mkvmerge v7.1.0 ('Good Love') 32bit built on Jul 27 2014 12:59:18
Writing library                : libebml v1.3.0 + libmatroska v1.4.1

Video
ID                             : 1
Format                         : AVC
Format/Info                    : Advanced Video Codec
Format profile                 : High@L5.1
Format settings, CABAC         : Yes
Format settings, ReFrames      : 3 frames
Codec ID                       : V_MPEG4/ISO/AVC
Duration                       : 2h 10mn
Bit rate                       : 6 007 Kbps
Width                          : 3 840 pixels
Height                         : 1 608 pixels
Display aspect ratio           : 2.40:1
Frame rate mode                : Constant
Frame rate                     : 24.000 fps
Color space                    : YUV
Chroma subsampling             : 4:2:0
Bit depth                      : 8 bits
Scan type                      : Progressive
Bits/(Pixel*Frame)             : 0.041
Stream size                    : 5.47 GiB (99%)
Default                        : Yes
Forced                         : No
Color range                    : Limited
Color primaries                : BT.709
Transfer characteristics       : BT.709
Matrix coefficients            : BT.709

Audio
ID                             : 2
Format                         : AAC
Format/Info                    : Advanced Audio Codec
Format profile                 : HE-AAC / LC
Codec ID                       : A_AAC
Duration                       : 2h 10mn
Bit rate                       : 62.9 Kbps
Channel(s)                     : 2 channels
Channel positions              : Front: L R
Sampling rate                  : 44.1 KHz / 22.05 KHz
Frame rate                     : 21.533 fps (1024 spf)
Compression mode               : Lossy
Stream size                    : 58.7 MiB (1%)
Default                        : Yes
Forced                         : No






Our Time Will Come 2017 4K 2160p WEB-DL x264 AAC-SmY-(seehd.co).torrent
xq007
新手
新手
  • 注册日期2017-06-01
  • 发帖数4
  • 影币2枚
  • 魔力值20点
  • 蓝光币1克拉
沙发#
发布于:2017-09-16 13:48
应该是好片,谢谢分享!
audywang
骑士
骑士
  • 注册日期2017-02-09
  • 发帖数27
  • 影币13枚
  • 魔力值300点
  • 蓝光币0克拉
  • 社区居民
  • 忠实会员
板凳#
发布于:2017-09-16 14:10
谢谢楼主分享
freerainba
骑士
骑士
  • 注册日期2017-02-07
  • 发帖数29
  • 影币23枚
  • 魔力值324点
  • 蓝光币3克拉
  • 社区居民
  • 忠实会员
地板#
发布于:2017-09-16 14:23
下载看看
zuozuo
精灵王
精灵王
  • 注册日期2015-09-21
  • 发帖数333
  • 影币351枚
  • 魔力值679点
  • 蓝光币27克拉
  • 社区居民
  • 忠实会员
4楼#
发布于:2017-09-16 14:36
111111111111111111111111111111
顾小帅
侠客
侠客
  • 注册日期2015-12-29
  • 发帖数93
  • 影币59枚
  • 魔力值142点
  • 蓝光币30克拉
  • 社区居民
5楼#
发布于:2017-09-16 14:43
彭于晏现在拍片不错
cxl9388
新手
新手
  • 注册日期2017-07-29
  • 发帖数22
  • 影币16枚
  • 魔力值28点
  • 蓝光币14克拉
6楼#
发布于:2017-09-16 15:04
谢谢楼主!分享,谢谢!·
lihuaan2222
骑士
骑士
  • 注册日期2016-09-13
  • 发帖数98
  • 影币105枚
  • 魔力值354点
  • 蓝光币19克拉
  • 社区居民
  • 忠实会员
7楼#
发布于:2017-09-16 15:05
谢谢楼主分享
壹竖脚印
精灵王
精灵王
  • 注册日期2016-03-08
  • 发帖数303
  • 影币859枚
  • 魔力值802点
  • 蓝光币37克拉
  • 社区居民
  • 忠实会员
8楼#
发布于:2017-09-16 15:59
感谢分享!
风里密码
圣骑士
圣骑士
  • 注册日期2016-09-08
  • 发帖数214
  • 影币20枚
  • 魔力值524点
  • 蓝光币2克拉
  • 社区居民
  • 忠实会员
9楼#
发布于:2017-09-16 16:11
谢谢分享!
闭上眼睛
侠客
侠客
  • 注册日期2017-08-08
  • 发帖数82
  • 影币73枚
  • 魔力值60点
  • 蓝光币62克拉
10楼#
发布于:2017-09-16 16:16
感谢楼主
闭上眼睛
侠客
侠客
  • 注册日期2017-08-08
  • 发帖数82
  • 影币73枚
  • 魔力值60点
  • 蓝光币62克拉
11楼#
发布于:2017-09-16 16:16
谢谢分享
yl7505
圣骑士
圣骑士
  • 注册日期2016-07-07
  • 发帖数91
  • 影币29枚
  • 魔力值608点
  • 蓝光币8克拉
12楼#
发布于:2017-09-16 16:45
感谢楼主分享
alfonso2004
侠客
侠客
  • 注册日期2016-07-29
  • 发帖数88
  • 影币89枚
  • 魔力值70点
  • 蓝光币20克拉
13楼#
发布于:2017-09-16 16:55
谢谢分享!
jingzhongyue
骑士
骑士
  • 注册日期2016-01-05
  • 发帖数253
  • 影币273枚
  • 魔力值112点
  • 蓝光币156克拉
  • 社区居民
14楼#
发布于:2017-09-16 17:01
谢谢分享!
上一页
游客
返回顶部