gananicus
管理员
管理员
  • 注册日期2015-07-28
  • 发帖数674
  • 影币20140枚
  • 魔力值629点
  • 蓝光币1克拉
  • 社区居民
阅读:1035回复:19

[动作]狼母/恶狼之母.Wolf.Mother.2016.1080p.AMZN.WEBRip.DDP2.0.x264-AJP69 7.81GB

楼主#
更多 发布于:2017-09-29 19:05


◎译  名 狼母
◎片  名 Wolf
Mother
◎年  代 2016
◎产  地 美国
◎类  别 犯罪/惊悚
◎语  言 英语
◎上映日期 2016-06-02(美国)
◎IMDb评分  7.2/10
from 128 users
◎IMDb链接  http://www.imdb.com/title/tt3225318/
◎片  长 117分钟
◎导  演 Erik
Peter Carlson
◎主  演 汤姆·塞兹摩尔 Tom Sizemore
 娜嘉拉·汤森德 Najarra
Townsend
 玛丽·凯丽 Mary Carey
 Maria Olsen
 Sabrina
Culver
 Tomoko Karina
 Douglas Bennett
 康斯坦斯·布伦尼曼
Constance Brenneman
 Nancy Degnan
 Stephanie
Pearson
 Amir Rahim
 李·可可 Lea Coco
 Dave
Buzzotta
 Ellen Ho
 Dave Vescio

◎简  介

 In an
attempt to rectify their criminal past, a once successful Hollywood starlet,
turn prostitute, and a petty, misogynistic thief, set out together to solve a
high profile child abduction case in San Francisco.

Video
ID          
                            : 1
Format                                   :
AVC
Format/Info                              : Advanced Video Codec
Format
profile                           : High@L4
Format settings, CABAC          
        : Yes
Format settings, ReFrames                : 4 frames
Codec
ID                                 : V_MPEG4/ISO/AVC
Duration                
                : 1 h 57 min
Bit rate mode                            :
Variable
Bit rate                                 : 9 292 kb/s
Maximum bit
rate                         : 15.0 Mb/s
Width                                
    : 1 920 pixels
Height                                   : 1 080
pixels
Display aspect ratio                     : 16:9
Frame rate mode    
                     : Constant
Frame rate                               :
23.976 (24000/1001) FPS
Color space                              :
YUV
Chroma subsampling                       : 4:2:0
Bit depth          
                     : 8 bits
Scan type                                :
Progressive
Bits/(Pixel*Frame)                       : 0.187
Stream size  
                            : 7.62 GiB (98%)
Default                          
        : Yes
Forced                                   : No
Color range  
                            : Limited
Color primaries                      
   : BT.709
Transfer characteristics                 : BT.709
Matrix
coefficients                      : BT.709

Audio
ID                    
                   : 2
Format                                   :
E-AC-3
Format/Info                              : Enhanced Audio Coding
3
Format settings, Endianness              : Big
Codec ID                
                : A_EAC3
Duration                                 : 1 h 57
min
Bit rate mode                            : Constant
Bit rate          
                      : 224 kb/s
Channel(s)                               : 2
channels
Channel positions                        : Front: L R
Sampling
rate                            : 48.0 kHz
Frame rate                      
        : 187.500 FPS (256 spf)
Compression mode                         :
Lossy
Stream size                              : 188 MiB (2%)
Language    
                            : English
Service kind                          
   : Complete Main
Default                                  : Yes
Forced  
                                 : No

Text
ID                          
             : 3
Format                                   : UTF-8
Codec
ID                                 : S_TEXT/UTF8
Codec ID/Info              
              : UTF-8 Plain Text
Duration                                 : 1
h 56 min
Bit rate                                 : 57 b/s
Count of
elements                        : 1621
Stream size                          
    : 49.3 KiB (0%)
Language                                 :
English
Default                                  : No
Forced              
                     : No

附件名称/大小 下载次数 最后更新
Wolf.Mother.2016.1080p.AMZN.WEBRip.DDP2.0.x264-AJP69.torrent (79KB)  73 09-29 19:03

最新喜欢:

w133w133w133w1...
惊亦秋
精灵王
精灵王
  • 注册日期2015-07-28
  • 发帖数197
  • 影币435枚
  • 魔力值875点
  • 蓝光币4克拉
沙发#
发布于:2017-09-29 20:39
这个字幕估计还的等些时日,英文的还没出呢。
arbir
骑士
骑士
  • 注册日期2016-12-21
  • 发帖数38
  • 影币1枚
  • 魔力值354点
  • 蓝光币0克拉
  • 社区居民
  • 忠实会员
板凳#
发布于:2017-09-29 22:33
赚点积分
hchtchl
精灵王
精灵王
  • 注册日期2016-02-01
  • 发帖数580
  • 影币2713枚
  • 魔力值1143点
  • 蓝光币25克拉
  • 社区居民
  • 忠实会员
地板#
发布于:2017-09-29 22:44
非常感謝 !
wangweiwin
新手
新手
  • 注册日期2017-08-24
  • 发帖数4
  • 影币0枚
  • 魔力值78点
  • 蓝光币0克拉
4楼#
发布于:2017-09-29 23:58
看起来好性感啊,不知道内容情节和尺度会怎么样,下载欣赏一下。
lampc123
圣骑士
圣骑士
  • 注册日期2016-11-30
  • 发帖数307
  • 影币58枚
  • 魔力值620点
  • 蓝光币0克拉
  • 忠实会员
5楼#
发布于:2017-09-30 13:11
感谢楼主分享
lingnanfengt
论坛版主
论坛版主
  • 注册日期2017-06-15
  • 发帖数460
  • 影币601枚
  • 魔力值190点
  • 蓝光币283克拉
  • 社区居民
  • 忠实会员
6楼#
发布于:2017-09-30 13:52
看起来好有......可惜!......缺中
youqing
贫民
贫民
  • 注册日期2017-08-18
  • 发帖数2
  • 影币2枚
  • 魔力值14点
  • 蓝光币0克拉
  • 社区居民
7楼#
发布于:2017-09-30 15:31
wangweiwin:看起来好性感啊,不知道内容情节和尺度会怎么样,下载欣赏一下。回到原帖
怎么下载的
lst450
骑士
骑士
  • 注册日期2017-01-15
  • 发帖数119
  • 影币29枚
  • 魔力值372点
  • 蓝光币2克拉
  • 社区居民
  • 忠实会员
8楼#
发布于:2017-09-30 17:39
thanks
snake
精灵王
精灵王
  • 注册日期2015-07-28
  • 发帖数592
  • 影币11914枚
  • 魔力值2314点
  • 蓝光币58克拉
  • 社区居民
  • 忠实会员
  • 喜欢达人
9楼#
发布于:2017-09-30 20:28
感谢楼主分享
ifqy
骑士
骑士
  • 注册日期2017-03-18
  • 发帖数40
  • 影币2枚
  • 魔力值382点
  • 蓝光币7克拉
  • 社区居民
  • 忠实会员
10楼#
发布于:2017-10-01 09:12
赚钱,下载,感谢。。
abc0909444
禁止发言
禁止发言
  • 注册日期2017-09-25
  • 发帖数38
  • 影币38枚
  • 魔力值18点
  • 蓝光币0克拉
11楼#
发布于:2017-10-01 09:58
用户被禁言,该主题自动屏蔽!
w133w133
圣骑士
圣骑士
  • 注册日期2016-10-01
  • 发帖数53
  • 影币0枚
  • 魔力值594点
  • 蓝光币0克拉
  • 社区居民
  • 忠实会员
12楼#
发布于:2017-10-01 12:30
为啥积分不走
w133w133
圣骑士
圣骑士
  • 注册日期2016-10-01
  • 发帖数53
  • 影币0枚
  • 魔力值594点
  • 蓝光币0克拉
  • 社区居民
  • 忠实会员
13楼#
发布于:2017-10-01 12:31
我很想看看
河南玄2017
侠客
侠客
  • 注册日期2017-07-29
  • 发帖数83
  • 影币62枚
  • 魔力值106点
  • 蓝光币29克拉
  • 社区居民
  • 忠实会员
14楼#
发布于:2017-10-01 12:41
感谢楼主分享
上一页
游客
返回顶部