smy
smy
总版主
总版主
  • 注册日期2015-07-27
  • 发帖数1426
  • 影币67445枚
  • 魔力值2295点
  • 蓝光币1克拉
  • 社区居民
  • 忠实会员
  • 喜欢达人
  • 原创写手
阅读:7095回复:259

[SeeHD原创首发]破·局/肇事者/走到尽头【高码/1080p/国语】Peace Breaker 2017 1080p WEB-DL x264 AAC-SmY 中英(内嵌)4.69G

楼主#
更多 发布于:2017-10-04 11:40



◎译  名 肇事者/走到尽头/Peace Breaker
◎片  名 破·局
◎年  代 2017
◎产  地 中国大陆
◎类  别 动作/犯罪
◎语  言 汉语普通话
◎上映日期 2017-08-17(中国大陆)
◎IMDb评分  6.6/10 from 9 users
◎IMDb链接  http://www.imdb.com/title/tt7180392/
◎豆瓣评分 6.8/10 from 10,528 users
◎豆瓣链接 https://movie.douban.com/subject/26760160/
◎片  长 112分钟
◎导  演 连奕琦 Yi-chi Lien
◎主  演 郭富城 Aaron Kwok
王千源 Qianyuan Wang
刘涛 Tao Liu
余皑磊 Ailei Yu
冯嘉怡 Jiayi Feng
郑凯 Kai Zheng


◎简  介


这是高见翔警官生命中最艰难的一天:母亲去世,工作遇阻,还在奔丧时意外撞死了一个人。他本以为可以瞒天过海,没想到一个惊天阴谋在前方等待,令他身陷迷局......

General
Format                         : MPEG-4
Format profile                 : Base Media
Codec ID                       : isom (isom/avc1)
File size                      : 4.69 GiB
Duration                       : 1 h 52 min
Overall bit rate mode          : Variable
Overall bit rate               : 5 983 kb/s
Encoded date                   : UTC 2017-09-29 10:10:56
Tagged date                    : UTC 2017-09-29 10:10:56
Copyright                      : PPTV-2.4.0.(20,20)[1]

Video
ID                             : 1
Format                         : AVC
Format/Info                    : Advanced Video Codec
Format profile                 : High@L4
Format settings, CABAC         : Yes
Format settings, ReFrames      : 4 frames
Codec ID                       : avc1
Codec ID/Info                  : Advanced Video Coding
Duration                       : 1 h 52 min
Bit rate                       : 6 000 kb/s
Maximum bit rate               : 13.6 Mb/s
Width                          : 1 920 pixels
Height                         : 1 080 pixels
Display aspect ratio           : 16:9
Frame rate mode                : Constant
Frame rate                     : 24.000 FPS
Color space                    : YUV
Chroma subsampling             : 4:2:0
Bit depth                      : 8 bits
Scan type                      : Progressive
Bits/(Pixel*Frame)             : 0.121
Stream size                    : 4.54 GiB (97%)
Title                          : VideoByEZMediaEditor
Writing library                : x264()-core 129 - H.264/MPEG-4
Encoding settings              : cabac=1 / ref=4 / deblock=1:0:0 / analyse=0x3:0x133 / me=umh / subme=9 / psy=1 / psy_rd=0.00:0.00 / mixed_ref=1 / me_range=24 / chroma_me=1 / trellis=2 / 8x8dct=1 / cqm=0 / deadzone=21,11 / fast_pskip=0 / chroma_qp_offset=0 / threads=40 / lookahead_threads=6 / sliced_threads=0 / nr=0 / decimate=1 / interlaced=0 / bluray_compat=0 / constrained_intra=0 / bframes=4 / b_pyramid=2 / b_adapt=0 / b_bias=0 / direct=3 / weightb=1 / open_gop=0 / weightp=2 / keyint=240 / keyint_min=24 / scenecut=40 / intra_refresh=0 / rc_lookahead=60 / rc=abr / mbtree=1 / bitrate=6000 / ratetol=1.0 / qcomp=0.60 / qpmin=0 / qpmax=69 / qpstep=4 / vbv_maxrate=12000 / vbv_bufsize=6000 / nal_hrd=none / ip_ratio=1.40 / aq=1:1.00
Encoded date                   : UTC 2017-09-29 10:10:56
Tagged date                    : UTC 2017-09-29 10:11:48

Audio
ID                             : 2
Format                         : AAC
Format/Info                    : Advanced Audio Codec
Format profile                 : LC
Codec ID                       : 40
Duration                       : 1 h 52 min
Bit rate mode                  : Variable
Bit rate                       : 192 kb/s
Maximum bit rate               : 198 kb/s
Channel(s)                     : 2 channels
Channel positions              : Front: L R
Sampling rate                  : 44.1 kHz
Frame rate                     : 43.066 FPS (1024 spf)
Compression mode               : Lossy
Stream size                    : 152 MiB (3%)
Title                          : Audio1-English
Language                       : English
Encoded date                   : UTC 2017-09-29 10:11:39
Tagged date                    : UTC 2017-09-29 10:11:48




Peace Breaker 2017 1080p WEB-DL x264 AAC-SmY-(SeeHD.co).torrent
lansjuf1972
骑士
骑士
  • 注册日期2017-02-24
  • 发帖数99
  • 影币78枚
  • 魔力值280点
  • 蓝光币9克拉
  • 社区居民
沙发#
发布于:2017-10-04 12:10
谢谢分享
hgordon
新手
新手
  • 注册日期2017-06-11
  • 发帖数60
  • 影币36枚
  • 魔力值24点
  • 蓝光币19克拉
板凳#
发布于:2017-10-04 12:21
谢谢分享
qq844641455
贫民
贫民
  • 注册日期2017-10-04
  • 发帖数1
  • 影币11枚
  • 魔力值2点
  • 蓝光币1克拉
地板#
发布于:2017-10-04 12:32
感谢分享!
cherting
精灵王
精灵王
  • 注册日期2015-07-28
  • 发帖数268
  • 影币50枚
  • 魔力值1964点
  • 蓝光币26克拉
  • 社区居民
  • 忠实会员
4楼#
发布于:2017-10-04 12:33
感謝大大提供,謝謝分享!
yxzyb110
新手
新手
  • 注册日期2017-09-14
  • 发帖数36
  • 影币27枚
  • 魔力值44点
  • 蓝光币15克拉
  • 社区居民
5楼#
发布于:2017-10-04 12:37
感謝大大提供,謝謝分享!
maveandy
精灵王
精灵王
  • 注册日期2015-10-04
  • 发帖数404
  • 影币1619枚
  • 魔力值1226点
  • 蓝光币152克拉
  • 社区居民
  • 忠实会员
6楼#
发布于:2017-10-04 13:16
谢谢分享好片
lidan1971829
新手
新手
  • 注册日期2017-09-25
  • 发帖数41
  • 影币29枚
  • 魔力值40点
  • 蓝光币25克拉
  • 社区居民
  • 忠实会员
7楼#
发布于:2017-10-04 13:22
新片好片又出来了,谢谢分享
CHENSIYU
骑士
骑士
  • 注册日期2016-12-29
  • 发帖数16
  • 影币4枚
  • 魔力值422点
  • 蓝光币3克拉
  • 社区居民
  • 忠实会员
8楼#
发布于:2017-10-04 13:27
感谢分享,祝大家中秋快乐。
zxcv2222
圣骑士
圣骑士
  • 注册日期2016-09-18
  • 发帖数217
  • 影币1378枚
  • 魔力值722点
  • 蓝光币5克拉
  • 社区居民
  • 忠实会员
9楼#
发布于:2017-10-04 13:46
感谢分享!
gty6122
精灵王
精灵王
  • 注册日期2015-08-03
  • 发帖数1159
  • 影币496枚
  • 魔力值1445点
  • 蓝光币12克拉
  • 最爱沙发
  • 忠实会员
10楼#
发布于:2017-10-04 13:47
破·局 Peace Breaker 2017 1080p WEB-DL 【国语】

thank you very much
3Q~~~~~~
tzyxc
新手
新手
  • 注册日期2017-08-07
  • 发帖数38
  • 影币48枚
  • 魔力值36点
  • 蓝光币25克拉
11楼#
发布于:2017-10-04 13:50
支持国产啊!!!!!!!!!!!
s2588
侠客
侠客
  • 注册日期2016-09-18
  • 发帖数22
  • 影币1枚
  • 魔力值180点
  • 蓝光币2克拉
  • 社区居民
  • 忠实会员
12楼#
发布于:2017-10-04 14:14
dddddddddddd
louishk
骑士
骑士
  • 注册日期2016-10-21
  • 发帖数246
  • 影币166枚
  • 魔力值266点
  • 蓝光币2克拉
  • 社区居民
  • 忠实会员
13楼#
发布于:2017-10-04 14:33
感謝樓主無私分享
周子愚
圣骑士
圣骑士
  • 注册日期2016-07-18
  • 发帖数96
  • 影币9枚
  • 魔力值568点
  • 蓝光币4克拉
  • 社区居民
  • 忠实会员
14楼#
发布于:2017-10-04 16:01
谢谢分享
上一页
游客
返回顶部