smy
smy
总版主
总版主
  • 注册日期2015-07-27
  • 发帖数1426
  • 影币67445枚
  • 魔力值2295点
  • 蓝光币1克拉
  • 社区居民
  • 忠实会员
  • 喜欢达人
  • 原创写手
阅读:4068回复:209

[SeeHD原创首发]神偷奶爸3/卑鄙的我3/坏蛋奖门人3(港)/神偷奶爸3之小小兵【大陆公映版/1080p/国英双语】 Despicable.Me.3.2017.1080p.R6.WEB-DL.x264.2Audio-SmY 中文(内嵌) 3.88G

楼主#
更多 发布于:2017-10-08 12:03


◎译  名 神偷奶爸3/卑鄙的我3/坏蛋奖门人3(港)/神偷奶爸3之小小兵
◎片  名 Despicable Me 3
◎年  代 2017
◎产  地 美国
◎类  别 喜剧/动画/冒险
◎语  言   国语/英语
◎上映日期 2017-06-14(安锡动画电影节)/2017-06-30(美国)/2017-07-07(中国大陆)
◎IMDb评分  6.3/10 from 37,021 users
◎IMDb链接  http://www.imdb.com/title/tt3469046/
◎豆瓣评分 6.9/10 from 95,783 users
◎豆瓣链接   https://movie.douban.com/subject/25812712/
◎片  长 90分钟
◎导  演 凯尔·巴尔达 Kyle Balda / 皮艾尔·柯芬 Pierre Coffin / 埃里克·吉伦 Eric Guillon
◎主  演 史蒂夫·卡瑞尔 Steve Carell
克里斯汀·韦格 Kristen Wiig
崔·帕克 Trey Parker
米兰达·卡斯格拉夫 Miranda Cosgrove
达纳·盖尔 Dana Gaier
内芙·沙雷尔 Nev Scharrel
皮艾尔·柯芬 Pierre Coffin
史蒂夫·库根 Steve Coogan
朱莉·安德鲁斯 Julie Andrews
珍妮·斯蕾特 Jenny Slate
迈克尔·贝亚蒂 Michael Beattie
安迪·尼曼 Andy Nyman
阿德里安·奇斯卡托 Adrian Ciscato
布莱恩·T·德莱尼 Brian T. Delaney
肯·道里欧 Ken Daurio

◎简  介

     《神偷奶爸3》将延续前两部的温馨、搞笑风格,聚焦格鲁和露西的婚后生活,继续讲述格鲁和三个女儿的爆笑故事。“恶棍”奶爸格鲁将会如何对付大反派巴萨扎·布莱德,调皮可爱的小黄人们又会如何耍贱卖萌,无疑让全球观众万分期待。该片配音也最大程度沿用前作阵容,史蒂夫·卡瑞尔继续为男主角格鲁配音,皮埃尔·柯芬也将继续为经典角色小黄人配音,而新角色巴萨扎·布莱德则由《南方公园》主创元老崔·帕克为其配音。

General
Format                         : Matroska
Format version                 : Version 4 / Version 2
File size                      : 3.88 GiB
Duration                       : 1 h 29 min
Overall bit rate               : 6 190 kb/s
Encoded date                   : UTC 2017-10-08 03:47:39
Writing application            : mkvmerge v7.1.0 ('Good Love') 32bit built on Jul 27 2014 12:59:18
Writing library                : libebml v1.3.0 + libmatroska v1.4.1

Video
ID                             : 1
Format                         : AVC
Format/Info                    : Advanced Video Codec
Format profile                 : High@L4
Format settings, CABAC         : Yes
Format settings, ReFrames      : 4 frames
Codec ID                       : V_MPEG4/ISO/AVC
Duration                       : 1 h 29 min
Bit rate                       : 6 000 kb/s
Width                          : 1 920 pixels
Height                         : 1 080 pixels
Display aspect ratio           : 16:9
Frame rate mode                : Constant
Frame rate                     : 23.976 (24000/1001) FPS
Color space                    : YUV
Chroma subsampling             : 4:2:0
Bit depth                      : 8 bits
Scan type                      : Progressive
Bits/(Pixel*Frame)             : 0.121
Stream size                    : 3.64 GiB (94%)
Writing library                : x264()-core 129 - H.264/MPEG-4
Default                        : Yes
Forced                         : No

Audio #1
ID                             : 2
Format                         : AAC
Format/Info                    : Advanced Audio Codec
Format profile                 : LC
Codec ID                       : A_AAC
Duration                       : 1 h 29 min
Bit rate                       : 192 kb/s
Channel(s)                     : 2 channels
Channel positions              : Front: L R
Sampling rate                  : 44.1 kHz
Frame rate                     : 43.066 FPS (1024 spf)
Compression mode               : Lossy
Stream size                    : 122 MiB (3%)
Language                       : English
Default                        : Yes
Forced                         : No

Audio #2
ID                             : 3
Format                         : AAC
Format/Info                    : Advanced Audio Codec
Format profile                 : LC
Codec ID                       : A_AAC
Duration                       : 1 h 29 min
Bit rate                       : 192 kb/s
Channel(s)                     : 2 channels
Channel positions              : Front: L R
Sampling rate                  : 44.1 kHz
Frame rate                     : 43.066 FPS (1024 spf)
Compression mode               : Lossy
Stream size                    : 122 MiB (3%)
Language                       : English
Default                        : No
Forced                         : No




 
Despicable.Me.3.2017.1080p.R6.WEB-DL.x264.2Audio-SmY.torrent
oklau2234
精灵王
精灵王
  • 注册日期2015-07-28
  • 发帖数1426
  • 影币2246枚
  • 魔力值1578点
  • 蓝光币22克拉
  • 社区居民
  • 最爱沙发
  • 忠实会员
沙发#
发布于:2017-10-08 12:13
精彩的電影那會嫌多,繼續繼續,多謝多謝 辛苦晒
zjm123
圣骑士
圣骑士
  • 注册日期2016-08-14
  • 发帖数537
  • 影币286枚
  • 魔力值310点
  • 蓝光币65克拉
  • 社区居民
  • 忠实会员
板凳#
发布于:2017-10-08 12:21
多谢楼主
1747699101
圣骑士
圣骑士
  • 注册日期2016-11-19
  • 发帖数480
  • 影币468枚
  • 魔力值328点
  • 蓝光币205克拉
  • 社区居民
  • 忠实会员
地板#
发布于:2017-10-08 12:50
感谢楼主的分享
shijun915
骑士
骑士
  • 注册日期2015-09-25
  • 发帖数27
  • 影币4枚
  • 魔力值416点
  • 蓝光币4克拉
4楼#
发布于:2017-10-08 12:56
等待了很久的电影,马上下载!~!
wuping
骑士
骑士
  • 注册日期2015-09-27
  • 发帖数83
  • 影币15枚
  • 魔力值437点
  • 蓝光币6克拉
  • 社区居民
  • 忠实会员
5楼#
发布于:2017-10-08 13:52
谢谢楼主分享~~
jjttooo
贫民
贫民
  • 注册日期2017-10-08
  • 发帖数2
  • 影币12枚
  • 魔力值2点
  • 蓝光币0克拉
6楼#
发布于:2017-10-08 14:00
经典港片
bdxxgfgsh2
新手
新手
  • 注册日期2017-09-22
  • 发帖数13
  • 影币9枚
  • 魔力值26点
  • 蓝光币4克拉
7楼#
发布于:2017-10-08 14:11
这部影片每一部都看过了,非常喜欢这种动画化风格!
maveandy
精灵王
精灵王
  • 注册日期2015-10-04
  • 发帖数404
  • 影币1619枚
  • 魔力值1226点
  • 蓝光币152克拉
  • 社区居民
  • 忠实会员
8楼#
发布于:2017-10-08 14:49
感谢楼主分享
dreamsky119
贫民
贫民
  • 注册日期2017-10-08
  • 发帖数1
  • 影币1枚
  • 魔力值4点
  • 蓝光币1克拉
9楼#
发布于:2017-10-08 15:17
感谢楼主的分享
jxzym
侠客
侠客
  • 注册日期2017-02-08
  • 发帖数25
  • 影币3枚
  • 魔力值164点
  • 蓝光币3克拉
  • 社区居民
  • 忠实会员
10楼#
发布于:2017-10-08 15:55
谢谢楼主分享
yong
精灵王
精灵王
  • 注册日期2015-07-29
  • 发帖数483
  • 影币4599枚
  • 魔力值1428点
  • 蓝光币397克拉
  • 社区居民
  • 忠实会员
11楼#
发布于:2017-10-08 15:58
新角色巴萨扎·布莱德则由《南方公园》主创元老崔·帕克为其配音
yong
精灵王
精灵王
  • 注册日期2015-07-29
  • 发帖数483
  • 影币4599枚
  • 魔力值1428点
  • 蓝光币397克拉
  • 社区居民
  • 忠实会员
12楼#
发布于:2017-10-08 15:58
新角色巴萨扎·布莱德则由《南方公园》主创元老崔·帕克为其配音
yong
精灵王
精灵王
  • 注册日期2015-07-29
  • 发帖数483
  • 影币4599枚
  • 魔力值1428点
  • 蓝光币397克拉
  • 社区居民
  • 忠实会员
13楼#
发布于:2017-10-08 15:58
新角色巴萨扎·布莱德则由《南方公园》主创元老崔·帕克为其配音
yong
精灵王
精灵王
  • 注册日期2015-07-29
  • 发帖数483
  • 影币4599枚
  • 魔力值1428点
  • 蓝光币397克拉
  • 社区居民
  • 忠实会员
14楼#
发布于:2017-10-08 15:58
新角色巴萨扎·布莱德则由《南方公园》主创元老崔·帕克为其配音
上一页
游客
返回顶部