gananicus
管理员
管理员
  • 注册日期2015-07-28
  • 发帖数667
  • 影币19941枚
  • 魔力值623点
  • 蓝光币1克拉
  • 社区居民
阅读:288回复:3

[动作]惊天魔盗团2.Now.You.See.Me.2.2016.2160p.BluRay.REMUX.HEVC.DTS-HD.MA.TrueHD.7.1.Atmos-FGT 60GB

楼主#
更多 发布于:2017-10-11 18:13



◎译  名 惊天魔盗团2/非常盗2(港)/出神入化2(台)/惊天魔盗团:第二幕
◎片  名 Now You See Me 2
◎年  代 2016
◎产  地 美国
◎类  别 动作/冒险
◎语  言 英语/汉语普通话/粤语
◎上映日期 2016-06-10(美国)/2016-06-24(中国大陆)
◎IMDb评分  6.5/10 from 172,501 users
◎IMDb链接  http://www.imdb.com/title/tt3110958/
◎豆瓣评分 6.5/10 from 129,181 users
◎豆瓣链接 https://movie.douban.com/subject/25662337/
◎片  长 130分钟
◎导  演 朱浩伟 Jon M. Chu
◎主  演 杰西·艾森伯格 Jesse Eisenberg
马克·鲁弗洛 Mark Ruffalo
伍迪·哈里森 Woody Harrelson
戴夫·弗兰科 Dave Franco
丹尼尔·雷德克里夫 Daniel Radcliffe
丽兹·卡潘 Lizzy Caplan
周杰伦 Jay Chou
桑娜·莱瑟 Sanaa Lathan
迈克尔·凯恩 Michael Caine
摩根·弗里曼 Morgan Freeman
大卫·沃肖夫斯基 David Warshofsky
周采芹 Tsai Chin
理查德·莱恩 Richard Laing
亨利·劳埃德-休斯 Henry Lloyd-Hughes

◎简  介

该片讲述一群拥有超凡智慧与胆量的现代罗宾汉,运用魔术才华,与舞台之上劫富济贫,完成了一系列不可能的任务后又迎来一次危险的抢劫任务的故事。


Video
ID                                       : 1
Format                                   : HEVC
Format/Info                              : High Efficiency Video Coding
Format profile                           : Main 10@L5.1@High
Codec ID                                 : V_MPEGH/ISO/HEVC
Duration                                 : 2 h 9 min
Bit rate                                 : 56.5 Mb/s
Width                                    : 3 840 pixels
Height                                   : 2 160 pixels
Display aspect ratio                     : 16:9
Frame rate mode                          : Constant
Frame rate                               : 23.976 (24000/1001) FPS
Color space                              : YUV
Chroma subsampling                       : 4:2:0 (Type 2)
Bit depth                                : 10 bits
Bits/(Pixel*Frame)                       : 0.284
Stream size                              : 51.0 GiB (84%)
Title                                    : Now.You.See.Me.2.2016.2160p.BluRay.REMUX.HEVC.DTS-HD.MA.TrueHD.7.1.Atmos-FGT
Writing library                          : ATEME Titan KFE 3.7.3 (4.7.3.1003)
Default                                  : Yes
Forced                                   : No
Color range                              : Limited
Color primaries                          : BT.2020
Transfer characteristics                 : SMPTE ST 2084
Matrix coefficients                      : BT.2020 non-constant
Mastering display color primaries        : R: x=0.680000 y=0.320000, G: x=0.265000 y=0.690000, B: x=0.150000 y=0.060000, White point: x=0.312700 y=0.329000
Mastering display luminance              : min: 0.0000 cd/m2, max: 1000.0000 cd/m2
Maximum Content Light Level              : 1033 cd/m2
Maximum Frame-Average Light Level        : 356 cd/m2

Audio #1
ID                                       : 2
Format                                   : TrueHD
Format profile                           : TrueHD+Atmos / TrueHD
Codec ID                                 : A_TRUEHD
Duration                                 : 2 h 9 min
Bit rate mode                            : Variable
Bit rate                                 : 4 673 kb/s
Maximum bit rate                         : 8 928 kb/s
Channel(s)                               : Object Based / 8 channels
Channel positions                        : Object Based / Front: L C R, Side: L R, Back: L R, LFE
Sampling rate                            :  / 48.0 kHz
Frame rate                               : 1 200.000 FPS (40 spf)
Compression mode                         : Lossless
Delay relative to video                  : 32 ms
Stream size                              : 4.22 GiB (7%)
Title                                    : Now.You.See.Me.2.2016.2160p.BluRay.REMUX.HEVC.DTS-HD.MA.TrueHD.7.1.Atmos-FGT
Language                                 : English
Default                                  : Yes
Forced                                   : No

Audio #2
ID                                       : 3
Format                                   : DTS
Format/Info                              : Digital Theater Systems
Format profile                           : MA / Core
Mode                                     : 16
Format settings, Endianness              : Big
Codec ID                                 : A_DTS
Duration                                 : 2 h 9 min
Bit rate mode                            : Variable / Constant
Bit rate                                 : 3 719 kb/s / 1 509 kb/s
Channel(s)                               : 8 channels / 6 channels
Channel positions                        : Front: L C R, Side: L R, Back: L R, LFE / Front: L C R, Side: L R, LFE
Sampling rate                            : 48.0 kHz
Frame rate                               : 93.750 FPS (512 spf)
Bit depth                                : 24 bits
Compression mode                         : Lossless / Lossy
Stream size                              : 3.36 GiB (6%)
Title                                    : Now.You.See.Me.2.2016.2160p.BluRay.REMUX.HEVC.DTS-HD.MA.TrueHD.7.1.Atmos-FGT
Language                                 : English
Default                                  : No
Forced                                   : No

Audio #3
ID                                       : 4
Format                                   : AC-3
Format/Info                              : Audio Coding 3
Format settings, Endianness              : Big
Codec ID                                 : A_AC3
Duration                                 : 2 h 9 min
Bit rate mode                            : Constant
Bit rate                                 : 640 kb/s
Channel(s)                               : 6 channels
Channel positions                        : Front: L C R, Side: L R, LFE
Sampling rate                            : 48.0 kHz
Frame rate                               : 31.250 FPS (1536 spf)
Bit depth                                : 16 bits
Compression mode                         : Lossy
Delay relative to video                  : 31 ms
Stream size                              : 592 MiB (1%)
Title                                    : Now.You.See.Me.2.2016.2160p.BluRay.REMUX.HEVC.DTS-HD.MA.TrueHD.7.1.Atmos-FGT
Language                                 : English
Service kind                             : Complete Main
Default                                  : No
Forced                                   : No

Audio #4
ID                                       : 5
Format                                   : AC-3
Format/Info                              : Audio Coding 3
Format settings, Endianness              : Big
Codec ID                                 : A_AC3
Duration                                 : 2 h 9 min
Bit rate mode                            : Constant
Bit rate                                 : 640 kb/s
Channel(s)                               : 6 channels
Channel positions                        : Front: L C R, Side: L R, LFE
Sampling rate                            : 48.0 kHz
Frame rate                               : 31.250 FPS (1536 spf)
Bit depth                                : 16 bits
Compression mode                         : Lossy
Stream size                              : 592 MiB (1%)
Title                                    : Now.You.See.Me.2.2016.2160p.BluRay.REMUX.HEVC.DTS-HD.MA.TrueHD.7.1.Atmos-FGT
Language                                 : Spanish
Service kind                             : Complete Main
Default                                  : No
Forced                                   : No

Audio #5
ID                                       : 6
Format                                   : AC-3
Format/Info                              : Audio Coding 3
Format settings, Endianness              : Big
Codec ID                                 : A_AC3
Duration                                 : 2 h 9 min
Bit rate mode                            : Constant
Bit rate                                 : 640 kb/s
Channel(s)                               : 6 channels
Channel positions                        : Front: L C R, Side: L R, LFE
Sampling rate                            : 48.0 kHz
Frame rate                               : 31.250 FPS (1536 spf)
Bit depth                                : 16 bits
Compression mode                         : Lossy
Stream size                              : 591 MiB (1%)
Title                                    : Now.You.See.Me.2.2016.2160p.BluRay.REMUX.HEVC.DTS-HD.MA.TrueHD.7.1.Atmos-FGT
Language                                 : French
Service kind                             : Complete Main
Default                                  : No
Forced                                   : No

Audio #6
ID                                       : 7
Format                                   : AC-3
Format/Info                              : Audio Coding 3
Mode                                     : Dolby Digital
Format settings, Endianness              : Big
Codec ID                                 : A_AC3
Duration                                 : 2 h 9 min
Bit rate mode                            : Constant
Bit rate                                 : 224 kb/s
Channel(s)                               : 2 channels
Channel positions                        : Front: L R
Sampling rate                            : 48.0 kHz
Frame rate                               : 31.250 FPS (1536 spf)
Bit depth                                : 16 bits
Compression mode                         : Lossy
Stream size                              : 207 MiB (0%)
Title                                    : Now.You.See.Me.2.2016.2160p.BluRay.REMUX.HEVC.DTS-HD.MA.TrueHD.7.1.Atmos-FGT
Language                                 : English
Service kind                             : Complete Main
Default                                  : No
Forced                                   : No

Text #1
ID                                       : 8
Format                                   : PGS
Muxing mode                              : zlib
Codec ID                                 : S_HDMV/PGS
Codec ID/Info                            : Picture based subtitle format used on BDs/HD-DVDs
Duration                                 : 2 h 0 min
Bit rate                                 : 46.8 kb/s
Count of elements                        : 3830
Stream size                              : 40.2 MiB (0%)
Title                                    : English-PGS
Language                                 : English
Default                                  : Yes
Forced                                   : No

Text #2
ID                                       : 9
Format                                   : PGS
Muxing mode                              : zlib
Codec ID                                 : S_HDMV/PGS
Codec ID/Info                            : Picture based subtitle format used on BDs/HD-DVDs
Duration                                 : 2 h 0 min
Bit rate                                 : 51.3 kb/s
Count of elements                        : 4232
Stream size                              : 44.1 MiB (0%)
Title                                    : English-SDH-PGS
Language                                 : English
Default                                  : No
Forced                                   : No

Text #3
ID                                       : 10
Format                                   : PGS
Muxing mode                              : zlib
Codec ID                                 : S_HDMV/PGS
Codec ID/Info                            : Picture based subtitle format used on BDs/HD-DVDs
Duration                                 : 2 h 0 min
Bit rate                                 : 43.3 kb/s
Count of elements                        : 3778
Stream size                              : 37.2 MiB (0%)
Title                                    : Spanish-PGS
Language                                 : Spanish
Default                                  : No
Forced                                   : No

Text #4
ID                                       : 11
Format                                   : PGS
Muxing mode                              : zlib
Codec ID                                 : S_HDMV/PGS
Codec ID/Info                            : Picture based subtitle format used on BDs/HD-DVDs
Duration                                 : 1 h 43 min
Bit rate                                 : 311 b/s
Count of elements                        : 32
Stream size                              : 235 KiB (0%)
Title                                    : French-PGS
Language                                 : French
Default                                  : No
Forced                                   : No

Menu
00:00:00.000                             : en:Chapter 1
00:07:05.133                             : en:Chapter 2
00:16:03.837                             : en:Chapter 3
00:25:29.569                             : en:Chapter 4
00:33:16.828                             : en:Chapter 5
00:39:57.645                             : en:Chapter 6
00:48:07.718                             : en:Chapter 7
00:53:34.711                             : en:Chapter 8
01:03:53.246                             : en:Chapter 9
01:14:00.561                             : en:Chapter 10
01:20:23.568                             : en:Chapter 11
01:26:37.400                             : en:Chapter 12
01:32:37.051                             : en:Chapter 13
01:38:46.837                             : en:Chapter 14
01:48:13.528                             : en:Chapter 15
01:54:04.921                             : en:Chapter 16

附件名称/大小 下载次数 最后更新
Now.You.See.Me.2.2016.2160p.BluRay.REMUX.HEVC.DTS-HD.MA.TrueHD.7.1.Atmos-FGT.torrent (153KB)  33 10-11 18:12
zjm123
圣骑士
圣骑士
  • 注册日期2016-08-14
  • 发帖数537
  • 影币286枚
  • 魔力值310点
  • 蓝光币65克拉
  • 社区居民
  • 忠实会员
沙发#
发布于:2017-10-11 21:18
好片,谢谢楼主
liguochuan
精灵王
精灵王
  • 注册日期2015-10-03
  • 发帖数594
  • 影币2613枚
  • 魔力值1193点
  • 蓝光币2克拉
  • 社区居民
  • 忠实会员
板凳#
发布于:2017-10-12 21:41
有25GB左右就好
jinfom
禁止发言
禁止发言
  • 注册日期2017-10-08
  • 发帖数15
  • 影币15枚
  • 魔力值4点
  • 蓝光币0克拉
地板#
发布于:2017-10-16 21:23
用户被禁言,该主题自动屏蔽!
游客
返回顶部